Начать новую тему Ответить на тему
Статистика раздачи
Размер: 229.38 МБ | Добавлен: 26 июн 2020, 17:16 | Скачали: 0
Сидеров: 0  [0 байт/сек]    Личеров: 0  [0 байт/сек]
Пред. тема | След. тема 

Автор
Сообщение

СообщениеДобавлено: 26 июн 2020, 17:16 

Ответить с цитатой 

Individual Totem Kyria 13

Жанр: Industrial, EBM
Носитель: CD
Страна-производитель диска: Canada
Год издания: 2013
Издатель (лейбл): Artoffact Records
Номер по каталогу: AOF140
Аудиокодек: FLAC (*.flac)
Тип рипа: tracks+.cue
Битрейт аудио: lossless
Продолжительность: 00:42:37
Источник (релизер): Exchange
Наличие сканов в содержимом раздачи: Front
Треклист:

01. Croxxers (05:29)
02. Lost Souls (05:24)
03. The Great Mistake (04:23)
04. Council Of The Wise (04:35)
05. Go To War (04:19)
06. Mindworms (03:30)
07. Bluesky (05:26)
08. No Pressure (03:16)
09. Astral (03:11)
10. Wintermute (03:04)
Код:
Exact Audio Copy V1.0 beta 3 from 29. August 2011
EAC extraction logfile from 8. September 2013, 14:48
Individual Totem / Kyria 13
Used drive  : ASUS    DRW-24B1ST   Adapter: 3  ID: 0
Read mode               : Secure
Utilize accurate stream : Yes
Defeat audio cache      : Yes
Make use of C2 pointers : No
Read offset correction                      : 6
Overread into Lead-In and Lead-Out          : No
Fill up missing offset samples with silence : Yes
Delete leading and trailing silent blocks   : No
Null samples used in CRC calculations       : Yes
Used interface                              : Native Win32 interface for Win NT & 2000
Gap handling                                : Appended to previous track
Used output format              : User Defined Encoder
Selected bitrate                : 1024 kBit/s
Quality                         : High
Add ID3 tag                     : No
Command line compressor         : C:\Program Files (x86)\Exact Audio Copy\Flac\flac.exe
Additional command line options : -8 -V -T "ARTIST=%artist%" -T "TITLE=%title%" -T "ALBUM=%albumtitle%" -T "DATE=%year%" -T "TRACKNUMBER=%tracknr%" -T "GENRE=%genre%" -T "PERFORMER=%albuminterpret%" -T "COMPOSER=%composer%" %haslyrics%--tag-from-file=LYRICS="%lyricsfile%"%haslyrics% -T "ALBUMARTIST=%albumartist%" -T "DISCNUMBER=%cdnumber%" -T "TOTALDISCS=%totalcds%" -T "TOTALTRACKS=%numtracks%" -T "COMMENT=%comment%" %source% -o %dest%
TOC of the extracted CD
     Track |   Start  |  Length  | Start sector | End sector
    ---------------------------------------------------------
        1  |  0:00.00 |  5:28.44 |         0    |    24643
        2  |  5:28.44 |  5:23.40 |     24644    |    48908
        3  | 10:52.09 |  4:22.65 |     48909    |    68623
        4  | 15:14.74 |  4:35.17 |     68624    |    89265
        5  | 19:50.16 |  4:19.15 |     89266    |   108705
        6  | 24:09.31 |  3:30.14 |    108706    |   124469
        7  | 27:39.45 |  5:25.65 |    124470    |   148909
        8  | 33:05.35 |  3:16.37 |    148910    |   163646
        9  | 36:21.72 |  3:10.71 |    163647    |   177967
       10  | 39:32.68 |  3:04.00 |    177968    |   191767
Track  1
     Filename C:\EAC rips\Individual Totem - Kyria 13 [flac]\01 - Croxxers.wav
     Pre-gap length  0:00:02.00
     Peak level 88.2 %
     Extraction speed 3.6 X
     Track quality 100.0 %
     Test CRC 51A80FD8
     Copy CRC 51A80FD8
     Track not present in AccurateRip database
     Copy OK
Track  2
     Filename C:\EAC rips\Individual Totem - Kyria 13 [flac]\02 - Lost Souls.wav
     Peak level 97.6 %
     Extraction speed 4.2 X
     Track quality 100.0 %
     Test CRC 1FAD7FB5
     Copy CRC 1FAD7FB5
     Track not present in AccurateRip database
     Copy OK
Track  3
     Filename C:\EAC rips\Individual Totem - Kyria 13 [flac]\03 - The Great Mistake.wav
     Peak level 100.0 %
     Extraction speed 4.5 X
     Track quality 100.0 %
     Test CRC DCD03561
     Copy CRC DCD03561
     Track not present in AccurateRip database
     Copy OK
Track  4
     Filename C:\EAC rips\Individual Totem - Kyria 13 [flac]\04 - Council Of The Wise.wav
     Peak level 97.8 %
     Extraction speed 4.2 X
     Track quality 99.9 %
     Test CRC DE1FB2AD
     Copy CRC DE1FB2AD
     Track not present in AccurateRip database
     Copy OK
Track  5
     Filename C:\EAC rips\Individual Totem - Kyria 13 [flac]\05 - Go To War.wav
     Peak level 84.3 %
     Extraction speed 5.1 X
     Track quality 100.0 %
     Test CRC 683BFB72
     Copy CRC 683BFB72
     Track not present in AccurateRip database
     Copy OK
Track  6
     Filename C:\EAC rips\Individual Totem - Kyria 13 [flac]\06 - Mindworms.wav
     Peak level 94.8 %
     Extraction speed 5.1 X
     Track quality 100.0 %
     Test CRC 5CBD58C5
     Copy CRC 5CBD58C5
     Track not present in AccurateRip database
     Copy OK
Track  7
     Filename C:\EAC rips\Individual Totem - Kyria 13 [flac]\07 - Bluesky.wav
     Peak level 87.7 %
     Extraction speed 5.7 X
     Track quality 100.0 %
     Test CRC 389EEA42
     Copy CRC 389EEA42
     Track not present in AccurateRip database
     Copy OK
Track  8
     Filename C:\EAC rips\Individual Totem - Kyria 13 [flac]\08 - No Pressure.wav
     Peak level 77.4 %
     Extraction speed 5.7 X
     Track quality 100.0 %
     Test CRC E73F610C
     Copy CRC E73F610C
     Track not present in AccurateRip database
     Copy OK
Track  9
     Filename C:\EAC rips\Individual Totem - Kyria 13 [flac]\09 - Astral.wav
     Peak level 99.5 %
     Extraction speed 5.9 X
     Track quality 100.0 %
     Test CRC 103358BE
     Copy CRC 103358BE
     Track not present in AccurateRip database
     Copy OK
Track 10
     Filename C:\EAC rips\Individual Totem - Kyria 13 [flac]\10 - Wintermute.wav
     Peak level 76.9 %
     Extraction speed 5.9 X
     Track quality 100.0 %
     Test CRC 5CE2DC62
     Copy CRC 5CE2DC62
     Track not present in AccurateRip database
     Copy OK
None of the tracks are present in the AccurateRip database
No errors occurred
End of status report
---- CUETools DB Plugin V2.1.3
[CTDB TOCID: Be.BK9AR4U9dwyKI4uA0WZnTlLE-] disk not present in database, Submit result: Be.BK9AR4U9dwyKI4uA0WZnTlLE- has been uploaded
==== Log checksum 151106FF9F93D286DCF67A469965B5A5B2E94CCF9E38AA8F9B9DDC99626CE9BB ====
Код:
REM GENRE Industrial
REM DATE 2013
REM DISCID 8409FC0A
REM COMMENT "ExactAudioCopy v1.0b3"
PERFORMER "Individual Totem"
TITLE "Kyria 13"
FILE "01 - Croxxers.wav" WAVE
  TRACK 01 AUDIO
    TITLE "Croxxers "
    PERFORMER "Individual Totem"
    INDEX 01 00:00:00
FILE "02 - Lost Souls.wav" WAVE
  TRACK 02 AUDIO
    TITLE "Lost Souls "
    PERFORMER "Individual Totem"
    INDEX 01 00:00:00
FILE "03 - The Great Mistake.wav" WAVE
  TRACK 03 AUDIO
    TITLE "The Great Mistake "
    PERFORMER "Individual Totem"
    INDEX 01 00:00:00
FILE "04 - Council Of The Wise.wav" WAVE
  TRACK 04 AUDIO
    TITLE "Council Of The Wise "
    PERFORMER "Individual Totem"
    INDEX 01 00:00:00
FILE "05 - Go To War.wav" WAVE
  TRACK 05 AUDIO
    TITLE "Go To War "
    PERFORMER "Individual Totem"
    INDEX 01 00:00:00
FILE "06 - Mindworms.wav" WAVE
  TRACK 06 AUDIO
    TITLE "Mindworms "
    PERFORMER "Individual Totem"
    INDEX 01 00:00:00
FILE "07 - Bluesky.wav" WAVE
  TRACK 07 AUDIO
    TITLE "Bluesky "
    PERFORMER "Individual Totem"
    INDEX 01 00:00:00
FILE "08 - No Pressure.wav" WAVE
  TRACK 08 AUDIO
    TITLE "No Pressure "
    PERFORMER "Individual Totem"
    INDEX 01 00:00:00
FILE "09 - Astral.wav" WAVE
  TRACK 09 AUDIO
    TITLE "Astral "
    PERFORMER "Individual Totem"
    INDEX 01 00:00:00
FILE "10 - Wintermute.wav" WAVE
  TRACK 10 AUDIO
    TITLE "Wintermute"
    PERFORMER "Individual Totem"
    INDEX 01 00:00:00
Код:
-----------------------
DON'T MODIFY THIS FILE
-----------------------
PERFORMER: auCDtect Task Manager, ver. 1.5.1RC6 build 1.5.1.7
Copyright (c) 2008-2010 y-soft. All rights reserved
[url=http://y-soft.org]http://y-soft.org[/url]
ANALYZER: auCDtect: CD records authenticity detector, version 0.8.2
Copyright (c) 2004 Oleg Berngardt. All rights reserved.
Copyright (c) 2004 Alexander Djourik. All rights reserved.
FILE: 07 - Bluesky.flac
  Size: 31408981 Hash: C786879C2F556C631F6FA53BB6D523A3 Accuracy: -m0
  Conclusion: CDDA 100%
  Signature: FBFEA0E22EC2C9AF2F108EE662BB13CD61583F31
FILE: 06 - Mindworms.flac
  Size: 22763037 Hash: D11E2CDCFDC6A393A71D3E0844529861 Accuracy: -m0
  Conclusion: CDDA 100%
  Signature: 140DE907DBF83FC014D498430FC1580C1EAC96EC
FILE: 05 - Go To War.flac
  Size: 20391763 Hash: DBD8755C603FF3F2FFCC8D1193ECCDFD Accuracy: -m0
  Conclusion: CDDA 100%
  Signature: B9FC4F6B110D21C7986B3BDDFB11CF73D8EC61C5
FILE: 04 - Council Of The Wise.flac
  Size: 26670690 Hash: 86D2E83A9B692F42990F571CE8F0973F Accuracy: -m0
  Conclusion: CDDA 100%
  Signature: AF18E43676075C5838C4C95A6BA6FEA85C3B2A78
FILE: 03 - The Great Mistake.flac
  Size: 24694728 Hash: F868DD7810494D0E8B25E5561B5C1630 Accuracy: -m0
  Conclusion: CDDA 100%
  Signature: 06428679A02F37D92EF7F09E127F739B27397BB5
FILE: 02 - Lost Souls.flac
  Size: 32779799 Hash: DB8DD703009D0607DBF438754B2C8DBD Accuracy: -m0
  Conclusion: CDDA 100%
  Signature: 50E602827ADF3ED452C2B8F4D1B4ED1D2FDE5DAF
FILE: 01 - Croxxers.flac
  Size: 29859576 Hash: 44BCAEAB01987C7390020C6DCA77485F Accuracy: -m0
  Conclusion: CDDA 100%
  Signature: 8CDF37502E2FFDC06C2B6F8DA44D1EDD2E2C2461
FILE: 10 - Wintermute.flac
  Size: 14940779 Hash: 389DEA7D581160CF86D1D6F0E8F502D4 Accuracy: -m0
  Conclusion: CDDA 99%
  Signature: 538A1F30A58B7B970B4E89606B613618DCDB1D12
FILE: 09 - Astral.flac
  Size: 17240533 Hash: 7EAD957FCB7B3139B2DCAF7188A51DD3 Accuracy: -m0
  Conclusion: CDDA 100%
  Signature: 12F3D140CBA75F12705B5958C4F9E28A2564F7B1
FILE: 08 - No Pressure.flac
  Size: 19223736 Hash: 72D3FB70A54C4FC7AE56A492C991BF37 Accuracy: -m0
  Conclusion: CDDA 100%
  Signature: E5BB4B0CCC77B133536A1E36AB0445C8436C4DF7

N
ICE FLIGHT!..
Правила, инструкции, FAQ!!!
Торрент  Добавлен [26 июн 2020, 17:16] Скачать торрент Магнет ссылка
Скачать торрент
[ Размер 19.09 КБ / Просмотров 4 ]

Статус
Проверен 
 
Размер  229.38 МБ
Приватный: Нет (DHT включён)
.torrent скачан  0
 


     Отправить личное сообщение
   
Страница 1 из 1
Показать сообщения за:  Поле сортировки  
Начать новую тему Ответить на тему


Сейчас этот форум просматривают: нет зарегистрированных пользователей и гости: 0


Вы не можете начинать темы
Вы не можете отвечать на сообщения
Вы не можете редактировать свои сообщения
Вы не можете удалять свои сообщения
Вы не можете добавлять вложения

Перейти:  
cron