Начать новую тему Ответить на тему
Статистика раздачи
Размер: 145.86 МБ | Добавлен: 26 июн 2020, 20:15 | Скачали: 0
Сидеров: 0  [0 байт/сек]    Личеров: 0  [0 байт/сек]
Пред. тема | След. тема 

Автор
Сообщение

СообщениеДобавлено: 26 июн 2020, 20:15 

Ответить с цитатой 

Hocico / Vile Whispers
Жанр: Industrial, EBM
Носитель: CDM
Страна-производитель диска (релиза): Germany
Год издания: 2012
Издатель (лейбл): Out Of Line
Номер по каталогу: OUT 575
Страна исполнителя (группы): Mexico
Аудиокодек: FLAC (*.flac)
Тип рипа: image+.cue
Продолжительность: 0:18:53:14
Источник: собственный рип
Наличие сканов в содержимом раздачи: нет
Треклист:
1 Vile Whispers (Original Mix) 5:06
2 It Doesn't Exist 4:14
3 Vile Whispers (A Sweet Touch By Dulce Liquido) 4:41
4 Vile Whispers (Loud Thoughts By Rabia Sorda) 4:51
Код:
Exact Audio Copy V1.0 beta 3 from 29. August 2011
Отчёт EAC об извлечении, выполненном 10. ноября 2019, 1:17
Hocico / Vile Whispers
Дисковод: TSSTcorpCDDVDW SH-224DB   Adapter: 1  ID: 0
Режим чтения                 : Достоверность
Использование точного потока : Да
Отключение кэша аудио        : Да
Использование указателей C2  : Нет
Коррекция смещения при чтении                     : 6
Способность читать области Lead-in и Lead-out     : Нет
Заполнение пропущенных сэмплов тишиной            : Да
Удаление блоков с тишиной в начале и конце        : Нет
При вычислениях CRC использовались нулевые сэмплы : Да
Интерфейс                                         : Встроенный Win32-интерфейс для Win NT/2000
Выходной формат          : Пользовательский кодировщик
Выбранный битрейт        : 128 kBit/s
Качество                 : Высокий
Добавление ID3-тега      : Нет
Утилита сжатия           : C:\Program Files (x86)\FLAC\flac.exe
Дополнительные параметры : -V -8 -T "Date=%year%" -T "Genre=%genre%" %source%
TOC извлечённого CD
     Трек |   Старт  | Длительность | Начальный сектор | Конечный сектор
    ---------------------------------------------------------------------
       1  |  0:00.00 |    5:06.16   |           0      |      22965
       2  |  5:06.16 |    4:14.67   |       22966      |      42082
       3  |  9:21.08 |    4:41.02   |       42083      |      63159
       4  | 14:02.10 |    4:51.04   |       63160      |      84988
Характеристики диапазона извлечения и сообщения об ошибках
Выбранный диапазон
     Имя файла C:\EAC\Hocico ‎– Vile Whispers - 2012 CDM\Hocico - Vile Whispers.wav
     Пиковый уровень 100.0 %
     Скорость извлечения 2.3 X
     Качество диапазона 100.0 %
     CRC теста A1EC6BDB
     CRC копии A1EC6BDB
     Копирование... OK
Ошибок не произошло
AccurateRip: сводка
Трек  1  : извлечено точно (доверие 4)  [068A4AA4]  (AR v2)
Трек  2  : извлечено точно (доверие 4)  [68783C27]  (AR v2)
Трек  3  : извлечено точно (доверие 4)  [0F96E5FF]  (AR v2)
Трек  4  : извлечено точно (доверие 4)  [3122E4D1]  (AR v2)
Все треки извлечены точно
Конец отчёта
==== Контрольная сумма отчёта 1E0B037DBE04DD6A9D758B11E6E48B4712A5E453F1602D03C1C2D36DDC427034 ====
Код:
REM DATE 2012
REM DISCID 2B046D04
REM COMMENT "ExactAudioCopy v1.0b3"
PERFORMER "Hocico"
TITLE "Vile Whispers"
FILE "Hocico - Vile Whispers.flac" WAVE
  TRACK 01 AUDIO
    TITLE " Vile Whispers (Original Mix)"
    PERFORMER "Hocico"
    FLAGS DCP
    INDEX 01 00:00:00
  TRACK 02 AUDIO
    TITLE " It Doesn't Exist"
    PERFORMER "Hocico"
    FLAGS DCP
    INDEX 00 05:06:12
    INDEX 01 05:06:16
  TRACK 03 AUDIO
    TITLE "Vile Whispers (A Sweet Touch By Dulce Liquido)"
    PERFORMER "Hocico"
    FLAGS DCP
    INDEX 00 09:20:70
    INDEX 01 09:21:08
  TRACK 04 AUDIO
    TITLE "Vile Whispers (Loud Thoughts By Rabia Sorda)"
    PERFORMER "Hocico"
    FLAGS DCP
    INDEX 00 14:01:58
    INDEX 01 14:02:10
Правила, инструкции, FAQ!!!
Торрент  Добавлен [26 июн 2020, 20:15] Скачать торрент Магнет ссылка
Скачать торрент
[ Размер 12.04 КБ / Просмотров 12 ]

Статус
Проверен 
 
Размер  145.86 МБ
Приватный: Нет (DHT включён)
.torrent скачан  0
 


     Отправить личное сообщение
   
Страница 1 из 1
Показать сообщения за:  Поле сортировки  
Начать новую тему Ответить на тему


Сейчас этот форум просматривают: нет зарегистрированных пользователей и гости: 0


Вы не можете начинать темы
Вы не можете отвечать на сообщения
Вы не можете редактировать свои сообщения
Вы не можете удалять свои сообщения
Вы не можете добавлять вложения

Перейти:  
cron