Начать новую тему Ответить на тему
Статистика раздачи
Размер: 389.37 МБ | Добавлен: 26 июн 2020, 19:05 | Скачали: 0
Сидеров: 0  [0 байт/сек]    Личеров: 0  [0 байт/сек]
Пред. тема | След. тема 

Автор
Сообщение

СообщениеДобавлено: 26 июн 2020, 19:05 

Ответить с цитатой 

Gravity Kills / Superstarved
Жанр: Industrial/EBM
Страна-производитель диска: USA
Год издания диска: 2002
Издатель (лейбл): Sanctuary Records
Номер по каталогу: 06076-84548-2
Страна: USA
Аудиокодек: FLAC (*.flac)
Тип рипа: tracks+.cue
Битрейт аудио: lossless
Продолжительность: 00:46:38
Источник (релизер): what.cd
Наличие сканов в содержимом раздачи: нет
Треклист:
01 - Love, Sex, And Money
02 - Take It All Away
03 - Fifteen Minutes
04 - Forget Your Name
05 - Enemy
06 - Breakdown
07 - Beg And Borrow
08 - One Thing
09 - Personal Jesus
10 - Wide Awake
11 - Suffocate
12 - Superstarvedx
13 - LS&M Reprise
14 - LS&M Remix (Joolz Club Mix)
Код:
Exact Audio Copy V0.99 prebeta 4 from 23. January 2008
EAC extraction logfile from 16. June 2010, 0:44
Gravity Kills / Superstarved
Used drive  : PIONEER DVD-RW  DVRTD08L   Adapter: 2  ID: 0
Read mode               : Secure
Utilize accurate stream : Yes
Defeat audio cache      : Yes
Make use of C2 pointers : No
Read offset correction                      : 48
Overread into Lead-In and Lead-Out          : No
Fill up missing offset samples with silence : Yes
Delete leading and trailing silent blocks   : No
Null samples used in CRC calculations       : Yes
Used interface                              : Installed external ASPI interface
Gap handling                                : Appended to previous track
Used output format              : User Defined Encoder
Selected bitrate                : 320 kBit/s
Quality                         : High
Add ID3 tag                     : No
Command line compressor         : C:\Program Files\Exact Audio Copy\Flac\flac.exe
Additional command line options : -8 -A tukey(0.25) -A gauss(0.1875) -b 4096 -V -T "artist=%a" -T "title=%t" -T "album=%g" -T "date=%y" -T "tracknumber=%n" -T "genre=%m" %s --sector-align
TOC of the extracted CD
     Track |   Start  |  Length  | Start sector | End sector
    ---------------------------------------------------------
        1  |  0:00.00 |  3:40.64 |         0    |    16563
        2  |  3:40.64 |  3:49.02 |     16564    |    33740
        3  |  7:29.66 |  2:47.21 |     33741    |    46286
        4  | 10:17.12 |  3:56.26 |     46287    |    64012
        5  | 14:13.38 |  3:42.55 |     64013    |    80717
        6  | 17:56.18 |  3:27.17 |     80718    |    96259
        7  | 21:23.35 |  4:21.36 |     96260    |   115870
        8  | 25:44.71 |  3:52.16 |    115871    |   133286
        9  | 29:37.12 |  3:15.07 |    133287    |   147918
       10  | 32:52.19 |  4:08.05 |    147919    |   166523
       11  | 37:00.24 |  3:59.53 |    166524    |   184501
       12  | 41:00.02 |  3:27.24 |    184502    |   200050
       13  | 44:27.26 |  2:08.50 |    200051    |   209700
       14  | 46:36.01 |  7:50.30 |    209701    |   244980
Track  1
     Filename C:\Users\Phillip\Music\Gravity Kills - 2002 - Superstarved\01 - Love, Sex, And Money.wav
     Pre-gap length  0:00:02.00
     Peak level 97.7 %
     Track quality 100.0 %
     Test CRC A0C3EBA8
     Copy CRC A0C3EBA8
     Accurately ripped (confidence 7)  [EFEADAD4]
     Copy OK
Track  2
     Filename C:\Users\Phillip\Music\Gravity Kills - 2002 - Superstarved\02 - Take It All Away.wav
     Peak level 97.7 %
     Track quality 100.0 %
     Test CRC 69B4AF1D
     Copy CRC 69B4AF1D
     Accurately ripped (confidence 7)  [5D72C2FD]
     Copy OK
Track  3
     Filename C:\Users\Phillip\Music\Gravity Kills - 2002 - Superstarved\03 - Fifteen Minutes.wav
     Pre-gap length  0:00:00.37
     Peak level 97.7 %
     Track quality 100.0 %
     Test CRC 6B08D4BE
     Copy CRC 6B08D4BE
     Accurately ripped (confidence 7)  [B5E75FBB]
     Copy OK
Track  4
     Filename C:\Users\Phillip\Music\Gravity Kills - 2002 - Superstarved\04 - Forget Your Name.wav
     Pre-gap length  0:00:02.00
     Peak level 97.7 %
     Track quality 100.0 %
     Test CRC E2130FE7
     Copy CRC E2130FE7
     Accurately ripped (confidence 6)  [F51CAC7B]
     Copy OK
Track  5
     Filename C:\Users\Phillip\Music\Gravity Kills - 2002 - Superstarved\05 - Enemy.wav
     Peak level 97.7 %
     Track quality 100.0 %
     Test CRC 14DE4672
     Copy CRC 14DE4672
     Accurately ripped (confidence 7)  [138A57EA]
     Copy OK
Track  6
     Filename C:\Users\Phillip\Music\Gravity Kills - 2002 - Superstarved\06 - Breakdown.wav
     Pre-gap length  0:00:02.00
     Peak level 100.0 %
     Track quality 99.9 %
     Test CRC 676897C7
     Copy CRC 676897C7
     Accurately ripped (confidence 6)  [2119FA12]
     Copy OK
Track  7
     Filename C:\Users\Phillip\Music\Gravity Kills - 2002 - Superstarved\07 - Beg And Borrow.wav
     Pre-gap length  0:00:03.00
     Peak level 97.7 %
     Track quality 100.0 %
     Test CRC 0FD60A26
     Copy CRC 0FD60A26
     Accurately ripped (confidence 6)  [8B1BD663]
     Copy OK
Track  8
     Filename C:\Users\Phillip\Music\Gravity Kills - 2002 - Superstarved\08 - One Thing.wav
     Pre-gap length  0:00:01.28
     Peak level 97.7 %
     Track quality 100.0 %
     Test CRC 13C993F8
     Copy CRC 13C993F8
     Accurately ripped (confidence 7)  [FC4EB565]
     Copy OK
Track  9
     Filename C:\Users\Phillip\Music\Gravity Kills - 2002 - Superstarved\09 - Personal Jesus.wav
     Pre-gap length  0:00:05.00
     Peak level 97.7 %
     Track quality 100.0 %
     Test CRC 86B537D0
     Copy CRC 86B537D0
     Accurately ripped (confidence 7)  [74C7D55E]
     Copy OK
Track 10
     Filename C:\Users\Phillip\Music\Gravity Kills - 2002 - Superstarved\10 - Wide Awake.wav
     Peak level 97.7 %
     Track quality 99.9 %
     Test CRC BED2142B
     Copy CRC BED2142B
     Accurately ripped (confidence 6)  [F2272B3E]
     Copy OK
Track 11
     Filename C:\Users\Phillip\Music\Gravity Kills - 2002 - Superstarved\11 - Suffocate.wav
     Peak level 97.7 %
     Track quality 100.0 %
     Test CRC 0B6FF846
     Copy CRC 0B6FF846
     Accurately ripped (confidence 6)  [9E3F8E02]
     Copy OK
Track 12
     Filename C:\Users\Phillip\Music\Gravity Kills - 2002 - Superstarved\12 - Superstarvedx.wav
     Pre-gap length  0:00:01.00
     Peak level 97.7 %
     Track quality 100.0 %
     Test CRC 9BCEE8F4
     Copy CRC 9BCEE8F4
     Accurately ripped (confidence 7)  [ACFDBCA1]
     Copy OK
Track 13
     Filename C:\Users\Phillip\Music\Gravity Kills - 2002 - Superstarved\13 - LS&M Reprise.wav
     Pre-gap length  0:00:02.00
     Peak level 97.7 %
     Track quality 100.0 %
     Test CRC B77BE928
     Copy CRC B77BE928
     Accurately ripped (confidence 6)  [B56326E2]
     Copy OK
Track 14
     Filename C:\Users\Phillip\Music\Gravity Kills - 2002 - Superstarved\14 - LS&M Remix (Joolz Club Mix).wav
     Peak level 97.7 %
     Track quality 100.0 %
     Test CRC CC4EE12E
     Copy CRC CC4EE12E
     Accurately ripped (confidence 5)  [EB4FA767]
     Copy OK
All tracks accurately ripped
No errors occurred
End of status report
Код:
REM GENRE Industrial
REM DATE 2002
REM DISCID D80CC20E
REM COMMENT "ExactAudioCopy v0.99pb4"
PERFORMER "Gravity Kills"
TITLE "Superstarved"
FILE "Gravity Kills - 2002 - Superstarved\01 - Love, Sex, And Money.wav" WAVE
  TRACK 01 AUDIO
    TITLE "Love, Sex, And Money"
    PERFORMER "Gravity Kills"
    INDEX 01 00:00:00
FILE "Gravity Kills - 2002 - Superstarved\02 - Take It All Away.wav" WAVE
  TRACK 02 AUDIO
    TITLE "Take It All Away"
    PERFORMER "Gravity Kills"
    INDEX 01 00:00:00
  TRACK 03 AUDIO
    TITLE "Fifteen Minutes"
    PERFORMER "Gravity Kills"
    INDEX 00 03:48:49
FILE "Gravity Kills - 2002 - Superstarved\03 - Fifteen Minutes.wav" WAVE
    INDEX 01 00:00:00
  TRACK 04 AUDIO
    TITLE "Forget Your Name"
    PERFORMER "Gravity Kills"
    INDEX 00 02:45:21
FILE "Gravity Kills - 2002 - Superstarved\04 - Forget Your Name.wav" WAVE
    INDEX 01 00:00:00
FILE "Gravity Kills - 2002 - Superstarved\05 - Enemy.wav" WAVE
  TRACK 05 AUDIO
    TITLE "Enemy"
    PERFORMER "Gravity Kills"
    INDEX 01 00:00:00
  TRACK 06 AUDIO
    TITLE "Breakdown"
    PERFORMER "Gravity Kills"
    INDEX 00 03:40:55
FILE "Gravity Kills - 2002 - Superstarved\06 - Breakdown.wav" WAVE
    INDEX 01 00:00:00
  TRACK 07 AUDIO
    TITLE "Beg And Borrow"
    PERFORMER "Gravity Kills"
    INDEX 00 03:24:17
FILE "Gravity Kills - 2002 - Superstarved\07 - Beg And Borrow.wav" WAVE
    INDEX 01 00:00:00
  TRACK 08 AUDIO
    TITLE "One Thing"
    PERFORMER "Gravity Kills"
    INDEX 00 04:20:15
FILE "Gravity Kills - 2002 - Superstarved\08 - One Thing.wav" WAVE
    INDEX 01 00:00:00
  TRACK 09 AUDIO
    TITLE "Personal Jesus"
    PERFORMER "Gravity Kills"
    INDEX 00 03:47:16
FILE "Gravity Kills - 2002 - Superstarved\09 - Personal Jesus.wav" WAVE
    INDEX 01 00:00:00
FILE "Gravity Kills - 2002 - Superstarved\10 - Wide Awake.wav" WAVE
  TRACK 10 AUDIO
    TITLE "Wide Awake"
    PERFORMER "Gravity Kills"
    INDEX 01 00:00:00
FILE "Gravity Kills - 2002 - Superstarved\11 - Suffocate.wav" WAVE
  TRACK 11 AUDIO
    TITLE "Suffocate"
    PERFORMER "Gravity Kills"
    INDEX 01 00:00:00
  TRACK 12 AUDIO
    TITLE "Superstarved*"
    PERFORMER "Gravity Kills"
    INDEX 00 03:58:53
FILE "Gravity Kills - 2002 - Superstarved\12 - Superstarvedx.wav" WAVE
    INDEX 01 00:00:00
  TRACK 13 AUDIO
    TITLE "LS&M Reprise"
    PERFORMER "Gravity Kills"
    INDEX 00 03:25:24
FILE "Gravity Kills - 2002 - Superstarved\13 - LS&M Reprise.wav" WAVE
    INDEX 01 00:00:00
FILE "Gravity Kills - 2002 - Superstarved\14 - LS&M Remix (Joolz Club Mix).wav" WAVE
  TRACK 14 AUDIO
    TITLE "LS&M Remix (Joolz Club Mix)"
    PERFORMER "Gravity Kills"
    INDEX 01 00:00:00
Правила, инструкции, FAQ!!!
Торрент  Добавлен [26 июн 2020, 19:05] Скачать торрент Магнет ссылка
Скачать торрент
[ Размер 16.55 КБ / Просмотров 8 ]

Статус
Проверен 
 
Размер  389.37 МБ
Приватный: Нет (DHT включён)
.torrent скачан  0
 


     Отправить личное сообщение
   
Страница 1 из 1
Показать сообщения за:  Поле сортировки  
Начать новую тему Ответить на тему


Сейчас этот форум просматривают: нет зарегистрированных пользователей и гости: 0


Вы не можете начинать темы
Вы не можете отвечать на сообщения
Вы не можете редактировать свои сообщения
Вы не можете удалять свои сообщения
Вы не можете добавлять вложения

Перейти:  
cron