Начать новую тему Ответить на тему
Статистика раздачи
Размер: 325.85 МБ | Добавлен: 26 июн 2020, 17:26 | Скачали: 0
Сидеров: 0  [0 байт/сек]    Личеров: 0  [0 байт/сек]
Пред. тема | След. тема 

Автор
Сообщение

СообщениеДобавлено: 26 июн 2020, 17:26 

Ответить с цитатой 

Gravity Kills - Superstarved
Жанр: Industrial/EBM
Год выпуска диска: 2002
Производитель диска: 06076-84539-2, USA
Аудио кодек: APE
Тип рипа: image+.cue
Битрейт аудио: lossless
Продолжительность: 46:38
Трэклист:
01 Love, Sex & Money
02 Take It All Away
03 Fifteen Minutes
04 Forget Your Name
05 Enemy
06 Breakdown
07 Beg & Borrow
08 One Thing
09 Personal Jesus
10 Wide Awake
11 Suffocate
12 Superstarved
13 Love, Sex & Money (Reprise)
Доп. информация:
Exact Audio Copy V0.99 prebeta 4 from 23. January 2008
Отчёт EAC об извлечении, выполненном 5. октября 2008, 14:05
Gravity Kills / Superstarved
Дисковод: _NEC DVD_RW ND-4551A Adapter: 1 ID: 0
Режим чтения : Достоверность
Использование точного потока : Да
Отключение кэша аудио : Да
Использование указателей C2 : Нет
Коррекция смещения при чтении : 48
Способность читать области Lead-in и Lead-out : Нет
Заполнение пропущенных сэмплов тишиной : Да
Удаление блоков с тишиной в начале и конце : Нет
При вычислениях CRC использовались нулевые сэмплы : Нет
Интерфейс : Встроенный Win32-интерфейс для Win NT/2000
Выходной формат : Внутренние WAV-операции
Формат сэмплов : 44.100 Гц; 16 бит; стерео
TOC извлечённого CD
Трек | Старт | Длительность | Начальный сектор | Конечный сектор
---------------------------------------------------------------------
1 | 0:00.00 | 3:40.37 | 0 | 16536
2 | 3:40.37 | 3:49.29 | 16537 | 33740
3 | 7:29.66 | 2:47.21 | 33741 | 46286
4 | 10:17.12 | 3:56.26 | 46287 | 64012
5 | 14:13.38 | 3:42.55 | 64013 | 80717
6 | 17:56.18 | 3:27.16 | 80718 | 96258
7 | 21:23.34 | 4:21.52 | 96259 | 115885
8 | 25:45.11 | 3:52.15 | 115886 | 133300
9 | 29:37.26 | 3:15.07 | 133301 | 147932
10 | 32:52.33 | 4:08.04 | 147933 | 166536
11 | 37:00.37 | 3:59.53 | 166537 | 184514
12 | 41:00.15 | 3:27.25 | 184515 | 200064
13 | 44:27.40 | 2:10.61 | 200065 | 209875
Характеристики диапазона извлечения и сообщения об ошибках
Выбранный диапазон
Имя файла D:\Temp_grab\Rock\Gravity Kills - Superstarved.wav
Пиковый уровень 100.0 %
Качество диапазона 100.0 %
CRC копии 4AA3E914
Копирование... OK
Ошибок не произошло
Конец отчёта
Правила, инструкции, FAQ!!!
Торрент  Добавлен [26 июн 2020, 17:26] Скачать торрент Магнет ссылка
Скачать торрент
[ Размер 26.22 КБ / Просмотров 6 ]

Статус
Проверен 
 
Размер  325.85 МБ
Приватный: Нет (DHT включён)
.torrent скачан  0
 


     Отправить личное сообщение
   
Страница 1 из 1
Показать сообщения за:  Поле сортировки  
Начать новую тему Ответить на тему


Сейчас этот форум просматривают: нет зарегистрированных пользователей и гости: 0


Вы не можете начинать темы
Вы не можете отвечать на сообщения
Вы не можете редактировать свои сообщения
Вы не можете удалять свои сообщения
Вы не можете добавлять вложения

Перейти:  
cron