Начать новую тему Ответить на тему
Статистика раздачи
Размер: 326.93 МБ | Добавлен: 26 июн 2020, 20:05 | Скачали: 0
Сидеров: 0  [0 байт/сек]    Личеров: 0  [0 байт/сек]
Пред. тема | След. тема 

Автор
Сообщение

СообщениеДобавлено: 26 июн 2020, 20:05 

Ответить с цитатой 

Girls Under Glass - Zyklus
Жанр: Industrial/EBM/Gothik
Год выпуска диска: 2005
Производитель диска: Irond 05-1028
Аудио кодек: APE
Тип рипа: image+.cue
Битрейт аудио: lossless
Продолжительность: 50:40
Трэклист:
01 In die Einsamkeit
02 Touch Me
03 Ohne Dich
04 Truly Living
05 Deliverance
06 Whatever Makes You Happy
07 Under My Skin
08 Love Is In My World
09 Feuerengel
10 Wonderworld
11 In The Darkness
12 I'm Alive
Доп. информация:
Exact Audio Copy V0.99 prebeta 4 from 23. January 2008
Отчёт EAC об извлечении, выполненном 5. октября 2008, 18:16
Girls Under Glass / Zyklus
Дисковод: _NEC DVD_RW ND-4551A Adapter: 1 ID: 0
Режим чтения : Достоверность
Использование точного потока : Да
Отключение кэша аудио : Да
Использование указателей C2 : Нет
Коррекция смещения при чтении : 48
Способность читать области Lead-in и Lead-out : Нет
Заполнение пропущенных сэмплов тишиной : Да
Удаление блоков с тишиной в начале и конце : Нет
При вычислениях CRC использовались нулевые сэмплы : Нет
Интерфейс : Встроенный Win32-интерфейс для Win NT/2000
Выходной формат : Внутренние WAV-операции
Формат сэмплов : 44.100 Гц; 16 бит; стерео
TOC извлечённого CD
Трек | Старт | Длительность | Начальный сектор | Конечный сектор
---------------------------------------------------------------------
1 | 0:00.00 | 3:56.17 | 0 | 17716
2 | 3:56.17 | 4:20.50 | 17717 | 37266
3 | 8:16.67 | 3:57.45 | 37267 | 55086
4 | 12:14.37 | 4:00.23 | 55087 | 73109
5 | 16:14.60 | 4:18.32 | 73110 | 92491
6 | 20:33.17 | 3:35.68 | 92492 | 108684
7 | 24:09.10 | 3:37.35 | 108685 | 124994
8 | 27:46.45 | 4:03.17 | 124995 | 143236
9 | 31:49.62 | 4:05.08 | 143237 | 161619
10 | 35:54.70 | 4:29.57 | 161620 | 181851
11 | 40:24.52 | 5:23.58 | 181852 | 206134
12 | 45:48.35 | 4:50.00 | 206135 | 227884
Характеристики диапазона извлечения и сообщения об ошибках
Выбранный диапазон
Имя файла D:\Temp_grab\Rock\Girls Under Glass - Zyklus.wav
Пиковый уровень 99.9 %
Качество диапазона 100.0 %
CRC копии 343E7153
Копирование... OK
Ошибок не произошло
Конец отчёта
Правила, инструкции, FAQ!!!
Торрент  Добавлен [26 июн 2020, 20:05] Скачать торрент Магнет ссылка
Скачать торрент
[ Размер 26.28 КБ / Просмотров 10 ]

Статус
Проверен 
 
Размер  326.93 МБ
Приватный: Нет (DHT включён)
.torrent скачан  0
 


     Отправить личное сообщение
   
Страница 1 из 1
Показать сообщения за:  Поле сортировки  
Начать новую тему Ответить на тему


Сейчас этот форум просматривают: нет зарегистрированных пользователей и гости: 0


Вы не можете начинать темы
Вы не можете отвечать на сообщения
Вы не можете редактировать свои сообщения
Вы не можете удалять свои сообщения
Вы не можете добавлять вложения

Перейти:  
cron