Начать новую тему Ответить на тему
Статистика раздачи
Размер: 385.58 МБ | Добавлен: 26 июн 2020, 19:43 | Скачали: 0
Сидеров: 0  [0 байт/сек]    Личеров: 0  [0 байт/сек]
Пред. тема | След. тема 

Автор
Сообщение

СообщениеДобавлено: 26 июн 2020, 19:43 

Ответить с цитатой 

Front Line Assembly - Angriff [Remix]
Жанр: Industrial / EBM
Год издания диска: 2010
Издатель (лейбл): Dependent Records
Аудио кодек: FLAC (*.flac)
Тип рипа: tracks+.cue
Битрейт аудио: lossless
Продолжительность: 51:53
Источник: hexonut (what.cd)
Наличие сканов в содержимом раздачи: да
Треклист:
01. Angriff (Radioactive Mix by Front Line Assembly) (7:31)
02. Attack The Masses (5:25)
03. Angriff (Radio Edit) (4:34)
04. Angriff (Mindless Faith mix) (5:42)
05. DER Angriff (Tim Skold mix) (7:42)
06. Freakuency (7:09)
07. Angriff (Mind in a Box mix) (7:06)
08. Angriff (Project Pitchfork mix) (6:43)
Код:
Exact Audio Copy V0.99 prebeta 5 from 4. May 2009
EAC extraction logfile from 1. November 2010, 15:29
Front Line Assembly / Angriff (Remix)
Used drive  : TSSTcorpCDRWDVD TS-H492C   Adapter: 0  ID: 0
Read mode               : Secure
Utilize accurate stream : Yes
Defeat audio cache      : Yes
Make use of C2 pointers : No
Read offset correction                      : 6
Overread into Lead-In and Lead-Out          : No
Fill up missing offset samples with silence : Yes
Delete leading and trailing silent blocks   : No
Null samples used in CRC calculations       : No
Used interface                              : Native Win32 interface for Win NT & 2000
Gap handling                                : Appended to previous track
Used output format              : User Defined Encoder
Selected bitrate                : 1024 kBit/s
Quality                         : High
Add ID3 tag                     : No
Command line compressor         : C:\Program Files\Exact Audio Copy\Flac\flac.exe
Additional command line options : -f --best -T "artist=%a" -T "title=%t" -T "album=%g" -T "date=%y" -T "tracknumber=%n" -T "genre=%m" %s
TOC of the extracted CD
     Track |   Start  |  Length  | Start sector | End sector
    ---------------------------------------------------------
        1  |  0:00.00 |  7:30.72 |         0    |    33821
        2  |  7:30.72 |  5:25.12 |     33822    |    58208
        3  | 12:56.09 |  4:34.23 |     58209    |    78781
        4  | 17:30.32 |  5:42.01 |     78782    |   104432
        5  | 23:12.33 |  7:42.07 |    104433    |   139089
        6  | 30:54.40 |  7:09.25 |    139090    |   171289
        7  | 38:03.65 |  7:06.30 |    171290    |   203269
        8  | 45:10.20 |  6:42.70 |    203270    |   233489
Track  1
     Filename C:\cygwin\tmp\Front Line Assembly - Angriff (Remix)\tracks\01 - Angriff (Radioactive Mix by Front Line Assembly).wav
     Pre-gap length  0:00:02.00
     Peak level 98.8 %
     Track quality 99.9 %
     Test CRC 1BB16D65
     Copy CRC 1BB16D65
     Track not present in AccurateRip database
     Copy OK
Track  2
     Filename C:\cygwin\tmp\Front Line Assembly - Angriff (Remix)\tracks\02 - Attack The Masses.wav
     Pre-gap length  0:00:02.23
     Peak level 98.7 %
     Track quality 100.0 %
     Test CRC 7F31E6AC
     Copy CRC 7F31E6AC
     Track not present in AccurateRip database
     Copy OK
Track  3
     Filename C:\cygwin\tmp\Front Line Assembly - Angriff (Remix)\tracks\03 - Angriff (Radio Edit).wav
     Pre-gap length  0:00:01.57
     Peak level 98.8 %
     Track quality 100.0 %
     Test CRC F529CC63
     Copy CRC F529CC63
     Track not present in AccurateRip database
     Copy OK
Track  4
     Filename C:\cygwin\tmp\Front Line Assembly - Angriff (Remix)\tracks\04 - Angriff   (Mindless Faith  mix).wav
     Pre-gap length  0:00:01.62
     Peak level 98.5 %
     Track quality 99.9 %
     Test CRC 011723B3
     Copy CRC 011723B3
     Track not present in AccurateRip database
     Copy OK
Track  5
     Filename C:\cygwin\tmp\Front Line Assembly - Angriff (Remix)\tracks\05 - DER Angriff  (Tim Skold mix).wav
     Pre-gap length  0:00:03.06
     Peak level 98.7 %
     Track quality 100.0 %
     Test CRC 4549555D
     Copy CRC 4549555D
     Track not present in AccurateRip database
     Copy OK
Track  6
     Filename C:\cygwin\tmp\Front Line Assembly - Angriff (Remix)\tracks\06 - Freakuency.wav
     Pre-gap length  0:00:01.62
     Peak level 98.8 %
     Track quality 99.9 %
     Test CRC 76061022
     Copy CRC 76061022
     Track not present in AccurateRip database
     Copy OK
Track  7
     Filename C:\cygwin\tmp\Front Line Assembly - Angriff (Remix)\tracks\07 - Angriff (Mind in a Box mix).wav
     Peak level 98.7 %
     Track quality 100.0 %
     Test CRC 1628E319
     Copy CRC 1628E319
     Track not present in AccurateRip database
     Copy OK
Track  8
     Filename C:\cygwin\tmp\Front Line Assembly - Angriff (Remix)\tracks\08 - Angriff (Project Pitchfork mix).wav
     Pre-gap length  0:00:01.26
     Peak level 98.7 %
     Track quality 100.0 %
     Test CRC 03B826C7
     Copy CRC 03B826C7
     Track not present in AccurateRip database
     Copy OK
None of the tracks are present in the AccurateRip database
No errors occurred
End of status report
Код:
REM DISCID 6D0C2908
REM COMMENT "ExactAudioCopy v0.99pb5"
PERFORMER "Front Line Assembly"
TITLE "Angriff (Remix)"
FILE "01 - Angriff (Radioactive Mix by Front Line Assembly).wav" WAVE
  TRACK 01 AUDIO
    TITLE "Angriff (Radioactive Mix by Front Line Assembly)"
    PERFORMER "Front Line Assembly"
    ISRC DEP511017201
    INDEX 01 00:00:00
  TRACK 02 AUDIO
    TITLE "Attack The Masses"
    PERFORMER "Front Line Assembly"
    ISRC DEP511017202
    INDEX 00 07:28:49
FILE "02 - Attack The Masses.wav" WAVE
    INDEX 01 00:00:00
  TRACK 03 AUDIO
    TITLE "Angriff (Radio Edit)"
    PERFORMER "Front Line Assembly"
    ISRC DEP511017203
    INDEX 00 05:23:30
FILE "03 - Angriff (Radio Edit).wav" WAVE
    INDEX 01 00:00:00
  TRACK 04 AUDIO
    TITLE "Angriff   (Mindless Faith  mix)"
    PERFORMER "Front Line Assembly"
    ISRC DEP511017204
    INDEX 00 04:32:36
FILE "04 - Angriff   (Mindless Faith  mix).wav" WAVE
    INDEX 01 00:00:00
  TRACK 05 AUDIO
    TITLE "DER Angriff  (Tim Skold mix)"
    PERFORMER "Front Line Assembly"
    ISRC DEP511017205
    INDEX 00 05:38:70
FILE "05 - DER Angriff  (Tim Skold mix).wav" WAVE
    INDEX 01 00:00:00
  TRACK 06 AUDIO
    TITLE "Freakuency"
    PERFORMER "Front Line Assembly"
    ISRC DEP511017206
    INDEX 00 07:40:20
FILE "06 - Freakuency.wav" WAVE
    INDEX 01 00:00:00
FILE "07 - Angriff (Mind in a Box mix).wav" WAVE
  TRACK 07 AUDIO
    TITLE "Angriff (Mind in a Box mix)"
    PERFORMER "Front Line Assembly"
    ISRC DEP511017207
    INDEX 01 00:00:00
  TRACK 08 AUDIO
    TITLE "Angriff (Project Pitchfork mix)"
    PERFORMER "Front Line Assembly"
    ISRC DEP511017208
    INDEX 00 07:05:04
FILE "08 - Angriff (Project Pitchfork mix).wav" WAVE
    INDEX 01 00:00:00
Код:
AUDIOCHECKER v2.0 beta (build 457) - by Dester - opdester@freemail.hu
~~~~~~~~~~~~~~~~~~~~~~~~~~~~~~~~~~
-=== DO NOT EDIT THIS FILE! ===-
Path: ...\Front Line Assembly - Angriff [Remix] (2010) [EP] EAC-FLAC
1 -=- 01 - Angriff (Radioactive Mix by Front Line Assembly).flac -=- CDDA (100%)
2 -=- 02 - Attack The Masses.flac -=- CDDA (100%)
3 -=- 03 - Angriff (Radio Edit).flac -=- CDDA (100%)
4 -=- 04 - Angriff (Mindless Faith mix).flac -=- CDDA (100%)
5 -=- 05 - DER Angriff (Tim Skold mix).flac -=- CDDA (100%)
6 -=- 06 - Freakuency.flac -=- CDDA (100%)
7 -=- 07 - Angriff (Mind in a Box mix).flac -=- CDDA (100%)
8 -=- 08 - Angriff (Project Pitchfork mix).flac -=- CDDA (100%)
Summary 100,00% CDDA
26189108
Правила, инструкции, FAQ!!!
Торрент  Добавлен [26 июн 2020, 19:43] Скачать торрент Магнет ссылка
Скачать торрент
[ Размер 16.47 КБ / Просмотров 8 ]

Статус
Проверен 
 
Размер  385.58 МБ
Приватный: Нет (DHT включён)
.torrent скачан  0
 


     Отправить личное сообщение
   
Страница 1 из 1
Показать сообщения за:  Поле сортировки  
Начать новую тему Ответить на тему


Сейчас этот форум просматривают: нет зарегистрированных пользователей и гости: 0


Вы не можете начинать темы
Вы не можете отвечать на сообщения
Вы не можете редактировать свои сообщения
Вы не можете удалять свои сообщения
Вы не можете добавлять вложения

Перейти:  
cron