Начать новую тему Ответить на тему
Статистика раздачи
Размер: 373.29 МБ | Добавлен: 26 июн 2020, 17:04 | Скачали: 0
Сидеров: 0  [0 байт/сек]    Личеров: 0  [0 байт/сек]
Пред. тема | След. тема 

Автор
Сообщение

СообщениеДобавлено: 26 июн 2020, 17:04 

Ответить с цитатой 

Fractured / Beneath The Ashes
Жанр: Industrial | EBM
Год издания диска: 2011
Издатель (лейбл): Dependent Records
Страна: Германия
Аудио кодек: FLAC (*.flac)
Тип рипа: tracks+.cue
Битрейт аудио: lossless
Продолжительность: 44:07
Источник (релизер): Waffles.fm
Наличие сканов в содержимом раздачи: нет
Треклист:
1. Beneath The Ashes (6:20)
2. For What? (4:10)
3. You Are (The Voice Inside My Head) (3:26)
4. Anesthetic (Featuring M@ From Encephalon) (4:17)
5. Transcendental Rage For The Fundamentals (Featuring It-Clings) (4:07)
6. Dig (4:18)
7. Save Me (4:18)
8. Straight Jacket Fashion (4:01)
9. Interlude (Instrumental) (2:09)
10. Fly Away (3:51)
11. We Bare These Scars (4:21)
12. Disengage (5:00)
Код:
Exact Audio Copy V1.0 beta 1 from 15. November 2010
 EAC extraction logfile from 24. April 2011, 19:25
 Fractured / Beneath The Ashes
 Used drive  : LITE-ON DVDRW LH-20A1H   Adapter: 0  ID: 0
 Read mode               : Secure
 Utilize accurate stream : Yes
 Defeat audio cache      : Yes
 Make use of C2 pointers : No
 Read offset correction                      : 6
 Overread into Lead-In and Lead-Out          : No
 Fill up missing offset samples with silence : Yes
 Delete leading and trailing silent blocks   : No
 Null samples used in CRC calculations       : Yes
 Used interface                              : Native Win32 interface for Win NT & 2000
 Gap handling                                : Appended to previous track
 Used output format              : User Defined Encoder
 Selected bitrate                : 1024 kBit/s
 Quality                         : High
 Add ID3 tag                     : No
 Command line compressor         : C:\Program Files\Exact Audio Copy\Flac\flac.exe
 Additional command line options : -V -8 -T "artist=%a" -T "title=%t" -T "album=%g" -T "date=%y" -T "tracknumber=%n" -T "genre=%m" %s
 TOC of the extracted CD
     Track |   Start  |  Length  | Start sector | End sector
    ---------------------------------------------------------
        1  |  0:00.00 |  6:19.72 |         0    |    28496
        2  |  6:19.72 |  4:10.28 |     28497    |    47274
        3  | 10:30.25 |  3:26.18 |     47275    |    62742
        4  | 13:56.43 |  4:16.69 |     62743    |    82011
        5  | 18:13.37 |  4:06.59 |     82012    |   100520
        6  | 22:20.21 |  4:18.31 |    100521    |   119901
        7  | 26:38.52 |  4:17.63 |    119902    |   139239
        8  | 30:56.40 |  4:01.35 |    139240    |   157349
        9  | 34:58.00 |  2:08.45 |    157350    |   166994
       10  | 37:06.45 |  3:50.53 |    166995    |   184297
       11  | 40:57.23 |  4:20.73 |    184298    |   203870
       12  | 45:18.21 |  5:00.35 |    203871    |   226405
 Track  1
     Filename D:\Music\New\Rips\FLAC\Fractured - Beneath The Ashes (2011) [FLAC]\Fractured - 01 - Beneath The Ashes.wav
     Pre-gap length  0:00:02.00
     Peak level 96.6 %
     Extraction speed 2.0 X
     Track quality 100.0 %
     Test CRC ECD796BE
     Copy CRC ECD796BE
     Track not present in AccurateRip database
     Copy OK
 Track  2
     Filename D:\Music\New\Rips\FLAC\Fractured - Beneath The Ashes (2011) [FLAC]\Fractured - 02 - For What.wav
     Peak level 96.6 %
     Extraction speed 1.9 X
     Track quality 99.9 %
     Test CRC 7C5C6146
     Copy CRC 7C5C6146
     Track not present in AccurateRip database
     Copy OK
 Track  3
     Filename D:\Music\New\Rips\FLAC\Fractured - Beneath The Ashes (2011) [FLAC]\Fractured - 03 - You Are (The Voice Inside My Head).wav
     Peak level 96.6 %
     Extraction speed 2.2 X
     Track quality 100.0 %
     Test CRC 91D716E1
     Copy CRC 91D716E1
     Track not present in AccurateRip database
     Copy OK
 Track  4
     Filename D:\Music\New\Rips\FLAC\Fractured - Beneath The Ashes (2011) [FLAC]\Fractured - 04 - Anesthetic (Featuring M@ From Encephalon).wav
     Peak level 96.6 %
     Extraction speed 2.5 X
     Track quality 100.0 %
     Test CRC 4C52F4ED
     Copy CRC 4C52F4ED
     Track not present in AccurateRip database
     Copy OK
 Track  5
     Filename D:\Music\New\Rips\FLAC\Fractured - Beneath The Ashes (2011) [FLAC]\Fractured - 05 - Transcendental Rage For Fundamentals (Featuring It-Clings).wav
     Peak level 96.6 %
     Extraction speed 2.6 X
     Track quality 100.0 %
     Test CRC 3A62B34A
     Copy CRC 3A62B34A
     Track not present in AccurateRip database
     Copy OK
 Track  6
     Filename D:\Music\New\Rips\FLAC\Fractured - Beneath The Ashes (2011) [FLAC]\Fractured - 06 - Dig.wav
     Peak level 96.6 %
     Extraction speed 2.8 X
     Track quality 100.0 %
     Test CRC 7D9C33F6
     Copy CRC 7D9C33F6
     Track not present in AccurateRip database
     Copy OK
 Track  7
     Filename D:\Music\New\Rips\FLAC\Fractured - Beneath The Ashes (2011) [FLAC]\Fractured - 07 - Save Me.wav
     Peak level 96.6 %
     Extraction speed 2.9 X
     Track quality 100.0 %
     Test CRC 3E2AF54A
     Copy CRC 3E2AF54A
     Track not present in AccurateRip database
     Copy OK
 Track  8
     Filename D:\Music\New\Rips\FLAC\Fractured - Beneath The Ashes (2011) [FLAC]\Fractured - 08 - Straight Jacket Fashion.wav
     Peak level 96.6 %
     Extraction speed 3.0 X
     Track quality 100.0 %
     Test CRC 856E8F21
     Copy CRC 856E8F21
     Track not present in AccurateRip database
     Copy OK
 Track  9
     Filename D:\Music\New\Rips\FLAC\Fractured - Beneath The Ashes (2011) [FLAC]\Fractured - 09 - Interlude (Instrumental).wav
     Peak level 96.6 %
     Extraction speed 2.8 X
     Track quality 100.0 %
     Test CRC 8815C04C
     Copy CRC 8815C04C
     Track not present in AccurateRip database
     Copy OK
 Track 10
     Filename D:\Music\New\Rips\FLAC\Fractured - Beneath The Ashes (2011) [FLAC]\Fractured - 10 - Fly Away.wav
     Peak level 96.6 %
     Extraction speed 3.2 X
     Track quality 100.0 %
     Test CRC 23D96C03
     Copy CRC 23D96C03
     Track not present in AccurateRip database
     Copy OK
 Track 11
     Filename D:\Music\New\Rips\FLAC\Fractured - Beneath The Ashes (2011) [FLAC]\Fractured - 11 - We Bare These Scars.wav
     Peak level 96.6 %
     Extraction speed 2.6 X
     Track quality 99.9 %
     Test CRC 649CB202
     Copy CRC 649CB202
     Track not present in AccurateRip database
     Copy OK
 Track 12
     Filename D:\Music\New\Rips\FLAC\Fractured - Beneath The Ashes (2011) [FLAC]\Fractured - 12 - Disengage.wav
     Peak level 96.6 %
     Extraction speed 3.5 X
     Track quality 100.0 %
     Test CRC BE4DFF2B
     Copy CRC BE4DFF2B
     Track not present in AccurateRip database
     Copy OK
 None of the tracks are present in the AccurateRip database
 No errors occurred
 End of status report
 ==== Log checksum 74EA0EEB2C8A01258F1C199E3161F4DD4808D408FB155C35006BD8634636927B ====
Код:
REM GENRE Industrial
REM DATE 2011
REM DISCID 920BCA0C
REM COMMENT "ExactAudioCopy v1.0b1"
FILE "01 - Beneath The Ashes.flac" WAVE
  TRACK 01 AUDIO
    TITLE "Beneath The Ashes"
    PERFORMER Fractured
    INDEX 01 00:00:00
FILE "02 - For What.flac" WAVE
  TRACK 02 AUDIO
    TITLE "For What"
    PERFORMER Fractured
    INDEX 01 00:00:00
FILE "03 - You Are (The Voice Inside My Head).flac" WAVE
  TRACK 03 AUDIO
    TITLE "You Are (The Voice Inside My Head)"
    PERFORMER Fractured
    INDEX 01 00:00:00
FILE "04 - Anesthetic (Featuring M@ From Encephalon).flac" WAVE
  TRACK 04 AUDIO
    TITLE "Anesthetic (Featuring M@ From Encephalon)"
    PERFORMER Fractured
    INDEX 01 00:00:00
FILE "05 - Transcendental Rage For Fundamentals (Featuring It-Clings).flac" WAVE
  TRACK 05 AUDIO
    TITLE "Transcendental Rage For Fundamentals (Featuring It-Clings)"
    PERFORMER Fractured
    INDEX 01 00:00:00
FILE "06 - Dig.flac" WAVE
  TRACK 06 AUDIO
    TITLE Dig
    PERFORMER Fractured
    INDEX 01 00:00:00
FILE "07 - Save Me.flac" WAVE
  TRACK 07 AUDIO
    TITLE "Save Me"
    PERFORMER Fractured
    INDEX 01 00:00:00
FILE "08 - Straight Jacket Fashion.flac" WAVE
  TRACK 08 AUDIO
    TITLE "Straight Jacket Fashion"
    PERFORMER Fractured
    INDEX 01 00:00:00
FILE "09 - Interlude (Instrumental).flac" WAVE
  TRACK 09 AUDIO
    TITLE "Interlude (Instrumental)"
    PERFORMER Fractured
    INDEX 01 00:00:00
FILE "10 - Fly Away.flac" WAVE
  TRACK 10 AUDIO
    TITLE "Fly Away"
    PERFORMER Fractured
    INDEX 01 00:00:00
FILE "11 - We Bare These Scars.flac" WAVE
  TRACK 11 AUDIO
    TITLE "We Bare These Scars"
    PERFORMER Fractured
    INDEX 01 00:00:00
FILE "12 - Disengage.flac" WAVE
  TRACK 12 AUDIO
    TITLE Disengage
    PERFORMER Fractured
    INDEX 01 00:00:00
Правила, инструкции, FAQ!!!
Торрент  Добавлен [26 июн 2020, 17:04] Скачать торрент Магнет ссылка
Скачать торрент
[ Размер 15.97 КБ / Просмотров 4 ]

Статус
Проверен 
 
Размер  373.29 МБ
Приватный: Нет (DHT включён)
.torrent скачан  0
 


     Отправить личное сообщение
   
Страница 1 из 1
Показать сообщения за:  Поле сортировки  
Начать новую тему Ответить на тему


Сейчас этот форум просматривают: нет зарегистрированных пользователей и гости: 0


Вы не можете начинать темы
Вы не можете отвечать на сообщения
Вы не можете редактировать свои сообщения
Вы не можете удалять свои сообщения
Вы не можете добавлять вложения

Перейти:  
cron