Начать новую тему Ответить на тему
Статистика раздачи
Размер: 455.31 МБ | Добавлен: 26 июн 2020, 20:05 | Скачали: 0
Сидеров: 0  [0 байт/сек]    Личеров: 0  [0 байт/сек]
Пред. тема | След. тема 

Автор
Сообщение

СообщениеДобавлено: 26 июн 2020, 20:05 

Ответить с цитатой 

Flesh Field - Belief Control
Жанр: Industrial, EBM
Год выпуска диска: 2001
Производитель диска: Germany / Music Group GmbH
Аудио кодек: FLAC
Тип рипа: tracks+.cue
Битрейт аудио: lossless
Продолжительность: 63:21
Трэклист:
01. Serene Image (6:27)
02. Conquer Me (4:58)
03. Acidic (4:51)
04. The Truth Within (5:17)
05. Hadean (5:34)
06. Obstinance (3:53)
07. Damnation (Version) (5:59)
08. Allegiance (4:50)
09. Inferior (4:21)
10. Of Purest Form (5:35)
11. Disillusion (5:11)
12. Caged (6:20)
EAC extraction logfile from 9. December 2006, 13:03 for CD
Flesh Field / Belief Control
Used drive : SONY DVD RW DRU-720A Adapter: 3 ID: 0
Read mode : Secure with NO C2, accurate stream, disable cache
Read offset correction : 12
Overread into Lead-In and Lead-Out : No
Used output format : C:\Program Files\FLAC\flac.exe (User Defined Encoder)
128 kBit/s
Additional command line options : -V -8 -T "artist=%a" -T "title=%t" -T "album=%g" -T "date=%y" -T "tracknumber=%n" -T "genre=%m" %s
Other options :
Fill up missing offset samples with silence : Yes
Delete leading and trailing silent blocks : No
Installed external ASPI interface
Track 1
Filename C:\BT\Flesh Field - Belief Control [flac]\01 - Serene Image.wav
Peak level 99.4 %
Track quality 100.0 %
Test CRC AB118E6D
Copy CRC AB118E6D
Copy OK
Track 2
Filename C:\BT\Flesh Field - Belief Control [flac]\02 - Conquer Me.wav
Peak level 99.4 %
Track quality 100.0 %
Test CRC E12F9C83
Copy CRC E12F9C83
Copy OK
Track 3
Filename C:\BT\Flesh Field - Belief Control [flac]\03 - Acidic.wav
Peak level 99.4 %
Track quality 99.9 %
Test CRC D4D888B4
Copy CRC D4D888B4
Copy OK
Track 4
Filename C:\BT\Flesh Field - Belief Control [flac]\04 - The Truth within.wav
Peak level 99.6 %
Track quality 100.0 %
Test CRC 2B8651BA
Copy CRC 2B8651BA
Copy OK
Track 5
Filename C:\BT\Flesh Field - Belief Control [flac]\05 - Hadean.wav
Peak level 99.4 %
Track quality 100.0 %
Test CRC 46451815
Copy CRC 46451815
Copy OK
Track 6
Filename C:\BT\Flesh Field - Belief Control [flac]\06 - Obstinance.wav
Peak level 100.0 %
Track quality 99.9 %
Test CRC AC2E0EDE
Copy CRC AC2E0EDE
Copy OK
Track 7
Filename C:\BT\Flesh Field - Belief Control [flac]\07 - Damnation [Version].wav
Peak level 99.4 %
Track quality 100.0 %
Test CRC B5B415F0
Copy CRC B5B415F0
Copy OK
Track 8
Filename C:\BT\Flesh Field - Belief Control [flac]\08 - Allegiance.wav
Peak level 100.0 %
Track quality 100.0 %
Test CRC 6FA3CB87
Copy CRC 6FA3CB87
Copy OK
Track 9
Filename C:\BT\Flesh Field - Belief Control [flac]\09 - Inferior.wav
Peak level 100.0 %
Track quality 100.0 %
Test CRC 4BCF1B35
Copy CRC 4BCF1B35
Copy OK
Track 10
Filename C:\BT\Flesh Field - Belief Control [flac]\10 - Of purest Form.wav
Peak level 99.4 %
Track quality 100.0 %
Test CRC ABDD31B9
Copy CRC ABDD31B9
Copy OK
Track 11
Filename C:\BT\Flesh Field - Belief Control [flac]\11 - Disillusion.wav
Peak level 99.4 %
Track quality 100.0 %
Test CRC 4AC7A030
Copy CRC 4AC7A030
Copy OK
Track 12
Filename C:\BT\Flesh Field - Belief Control [flac]\12 - Caged.wav
Peak level 99.4 %
Track quality 100.0 %
Test CRC 93A2652A
Copy CRC 93A2652A
Copy OK
No errors occured
End of status report
AUDIOCHECKER v2.0 beta (build 457) - by Dester - opdester@freemail.hu
~~~~~~~~~~~~~~~~~~~~~~~~~~~~~~~~~~
-=== НЕ РЕДАКТИРУЙТЕ ЭТОТ ФАЙЛ! ===-
Путь: ...\Flesh_Field_-_Belief_Control-2001-FLAC
01 -=- 01 - Serene Image.flac -=- CDDA (100%)
02 -=- 02 - Conquer Me.flac -=- CDDA (100%)
03 -=- 03 - Acidic.flac -=- CDDA (100%)
04 -=- 04 - The Truth within.flac -=- CDDA (100%)
05 -=- 05 - Hadean.flac -=- CDDA (100%)
06 -=- 06 - Obstinance.flac -=- CDDA (100%)
07 -=- 07 - Damnation [Version].flac -=- CDDA (100%)
08 -=- 08 - Allegiance.flac -=- CDDA (100%)
09 -=- 09 - Inferior.flac -=- CDDA (100%)
10 -=- 10 - Of purest Form.flac -=- CDDA (100%)
11 -=- 11 - Disillusion.flac -=- CDDA (100%)
12 -=- 12 - Caged.flac -=- CDDA (99%)
Сводка 99,92% CDDA
19448420
Правила, инструкции, FAQ!!!
Торрент  Добавлен [26 июн 2020, 20:05] Скачать торрент Магнет ссылка
Скачать торрент
[ Размер 19.06 КБ / Просмотров 6 ]

Статус
Проверен 
 
Размер  455.31 МБ
Приватный: Нет (DHT включён)
.torrent скачан  0
 


     Отправить личное сообщение
   
Страница 1 из 1
Показать сообщения за:  Поле сортировки  
Начать новую тему Ответить на тему


Сейчас этот форум просматривают: нет зарегистрированных пользователей и гости: 0


Вы не можете начинать темы
Вы не можете отвечать на сообщения
Вы не можете редактировать свои сообщения
Вы не можете удалять свои сообщения
Вы не можете добавлять вложения

Перейти:  
cron