Начать новую тему Ответить на тему
Статистика раздачи
Размер: 323.7 МБ | Добавлен: 26 июн 2020, 19:07 | Скачали: 0
Сидеров: 0  [0 байт/сек]    Личеров: 0  [0 байт/сек]
Пред. тема | След. тема 

Автор
Сообщение

СообщениеДобавлено: 26 июн 2020, 19:07 

Ответить с цитатой 

Feindflug - Hirnschlacht
Жанр: Industrial,Ebm
Год выпуска диска: 2001
Производитель диска: Германия
Аудио кодек: FLAC
Тип рипа: tracks+сue
Битрейт аудио: lossless
Трэклист:
1 Glaubenskrieg (6:37)
2 Suchatzki Marsch (5:34)
3 Selbstsucht (4:44)
4 Blutorgel (5:22)
5 Kalte Unschuld (5:01)
6 Menschenjagd (4:42)
7 Sturmwalze(r) (4:08)
8 Faustrecht (4:59)
9 Kopfschuss (Aeroflot-Mix) (4:45)
EAC extraction logfile from 25. January 2008, 12:46 for CD
Feindflug / Hirnschlacht (Red Edition)
Used drive : SONY DVD RW DRU-720A Adapter: 3 ID: 0
Read mode : Secure with NO C2, accurate stream, disable cache
Read offset correction : 12
Overread into Lead-In and Lead-Out : No
Used output format : C:\Program Files\FLAC\flac.exe (User Defined Encoder)
192 kBit/s
Additional command line options : -V -8 -T "artist=%a" -T "title=%t" -T "album=%g" -T "date=%y" -T "tracknumber=%n" -T "genre=%m" %s
Other options :
Fill up missing offset samples with silence : Yes
Delete leading and trailing silent blocks : No
Installed external ASPI interface
Track 1
Filename C:\A\Feindflug - Hirnschlacht (Red Edition) [flac]\01 - Glaubenskrieg.wav
Peak level 100.0 %
Track quality 100.0 %
Test CRC CE39CCC6
Copy CRC CE39CCC6
Copy OK
Track 2
Filename C:\A\Feindflug - Hirnschlacht (Red Edition) [flac]\02 - Suchatzki Marsch.wav
Peak level 100.0 %
Track quality 100.0 %
Test CRC 1D72D75F
Copy CRC 1D72D75F
Copy OK
Track 3
Filename C:\A\Feindflug - Hirnschlacht (Red Edition) [flac]\03 - Selbstsucht.wav
Peak level 100.0 %
Track quality 100.0 %
Test CRC 58C3A2DF
Copy CRC 58C3A2DF
Copy OK
Track 4
Filename C:\A\Feindflug - Hirnschlacht (Red Edition) [flac]\04 - Blutorgel.wav
Peak level 100.0 %
Track quality 99.9 %
Test CRC 6CDDE445
Copy CRC 6CDDE445
Copy OK
Track 5
Filename C:\A\Feindflug - Hirnschlacht (Red Edition) [flac]\05 - Kalte Unschuld.wav
Peak level 100.0 %
Track quality 100.0 %
Test CRC A620255F
Copy CRC A620255F
Copy OK
Track 6
Filename C:\A\Feindflug - Hirnschlacht (Red Edition) [flac]\06 - Menschenjagd.wav
Peak level 100.0 %
Track quality 99.9 %
Test CRC CAEB7059
Copy CRC CAEB7059
Copy OK
Track 7
Filename C:\A\Feindflug - Hirnschlacht (Red Edition) [flac]\07 - Sturmwalze(r).wav
Peak level 100.0 %
Track quality 100.0 %
Test CRC D1791AD9
Copy CRC D1791AD9
Copy OK
Track 8
Filename C:\A\Feindflug - Hirnschlacht (Red Edition) [flac]\08 - Faustrecht.wav
Peak level 100.0 %
Track quality 100.0 %
Test CRC 357B6770
Copy CRC 357B6770
Copy OK
Track 9
Filename C:\A\Feindflug - Hirnschlacht (Red Edition) [flac]\09 - Kopfschuss (Aeroflot-Mix).wav
Peak level 100.0 %
Track quality 100.0 %
Test CRC 28BDA24A
Copy CRC 28BDA24A
Copy OK
No errors occured
End of status report
Правила, инструкции, FAQ!!!
Торрент  Добавлен [26 июн 2020, 19:07] Скачать торрент Магнет ссылка
Скачать торрент
[ Размер 13.76 КБ / Просмотров 8 ]

Статус
Проверен 
 
Размер  323.7 МБ
Приватный: Нет (DHT включён)
.torrent скачан  0
 


     Отправить личное сообщение
   
Страница 1 из 1
Показать сообщения за:  Поле сортировки  
Начать новую тему Ответить на тему


Сейчас этот форум просматривают: нет зарегистрированных пользователей и гости: 0


Вы не можете начинать темы
Вы не можете отвечать на сообщения
Вы не можете редактировать свои сообщения
Вы не можете удалять свои сообщения
Вы не можете добавлять вложения

Перейти:  
cron