Начать новую тему Ответить на тему
Статистика раздачи
Размер: 1.01 ГБ | Добавлен: 26 июн 2020, 17:53 | Скачали: 0
Сидеров: 0  [0 байт/сек]    Личеров: 0  [0 байт/сек]
Пред. тема | След. тема 

Автор
Сообщение

СообщениеДобавлено: 26 июн 2020, 17:53 

Ответить с цитатой 

Various - We Came to Dance Vol.10 (2 CD).1997
Жанр: Industrial, EBM, Ethereal, Electro, Goth Rock, Sy
Носитель: CD
Страна-производитель диска (релиза): Germany
Год издания: 1997
Издатель (лейбл): Sub Terranean
Номер по каталогу: SPV 086-47302
Страна исполнителя (группы): Germany
Аудиокодек: FLAC (*.flac)
Тип рипа: image+.cue
Продолжительность: 1:10:03 + 1:10:56
Источник: собственный рип
Наличие сканов в содержимом раздачи: нет
Треклист:
CD 1 :
Previously Unreleased Tracks :
1-1 . Skinny Puppy - Morphedus 5:43
1-2 . Die Krupps - Isolation (Exclusive Remix) 4:04
1-3 . Atrocity - Deliverance (Das Ich Remix) 4:03
1-4 . Lacrimosa - Ich Bin Der Brennende Komet 7:00
1-5 . Blind Passengers - I Can't Enjoy It 3:04
1-6 . Cyan - San Diego ('97 Version) 5:35
1-7 . Goethes Erben - Erkaufe Träume (Gim Mix) 4:22
1-8 . Umbra Et Imago - Der Trieb (Triebtäter Mix) 5:07
1-9 . Dreadful Shadows - Dusk (Remix) 5:01
1-10 . Love Like Blood - This Empty Ocean 4:40
1-11 . Secret Discovery - Small World 3:47
1-12 . Calva Y Nada - Santos Inocentes (Hirsch Mix) 3:41
1-13 . Leæther Strip - Kill A Raver! (I Came To Dance) 4:42
1-14 . Psyche - Misery (Lights Of Euphoria Mix) 4:24
1-15 . Forthcoming Fire - Der Unbesiegte Sonnengott (Remix) 4:44
1-16 . Inside - November Days (Slow Motion Mix) 3:41
CD 2 :
Underground-Dancefloor-Hits :
2-1 . Shock Therapy - Can I Do What I Want? 6:15
2-2 . Klinik - Touch 5:01
2-3 . New Mind - Furnace (231° F-Mix) 5:06
2-4 . Still Silent - Shockwaved 3:53
2-5 . Still Patient? - Chameleon 5:14
2-6 . Dorsetshire - Süchtig! 4:25
2-7 . Ravenous - Violent World 4:59
2-8 . Aqua - A Fragile Tomorrow 3:14
2-9 . Evil's Toy - Organics 4:05
2-10 . Birmingham 6 - Die For Jehova 4:42
2-11 . In Strict Confidence - Become An Angel (Become A Dance Mix) 5:18
2-12 . Under The Noise - Sun (Flot Shot Remix) 6:45
2-13 . Abscess - The Game (Shattered) 4:48
2-14 . Daily Planet - Radioactive Love 3:58
2-15 . Elegant Machinery - Blind Man Dreams 3:06
2-16 . Chandeen - In Power We Entrust The Love Advocated 5:09
Код:
CD 1 :
Exact Audio Copy V1.3 from 2. September 2016
Отчёт EAC об извлечении, выполненном 13. марта 2020, 13:58
Various / We Came To Dance Vol.10  (CD1)
Дисковод: HL-DT-STDVD+-RW GU90N   Adapter: 1  ID: 0
Режим чтения                 : Достоверность
Использование точного потока : Да
Отключение кэша аудио        : Нет
Использование указателей C2  : Да
Коррекция смещения при чтении                     : 102
Способность читать области Lead-in и Lead-out     : Нет
Заполнение пропущенных сэмплов тишиной            : Да
Удаление блоков с тишиной в начале и конце        : Нет
При вычислениях CRC использовались нулевые сэмплы : Да
Интерфейс                                         : Встроенный Win32-интерфейс для Win NT/2000
Выходной формат : Внутренние WAV-операции
Формат сэмплов  : 44.100 Гц; 16 бит; стерео
TOC извлечённого CD
     Трек |   Старт  | Длительность | Начальный сектор | Конечный сектор
    ---------------------------------------------------------------------
       1  |  0:00.00 |    5:43.00   |           0      |      25724
       2  |  5:43.00 |    4:04.15   |       25725      |      44039
       3  |  9:47.15 |    4:03.02   |       44040      |      62266
       4  | 13:50.17 |    7:00.15   |       62267      |      93781
       5  | 20:50.32 |    3:04.68   |       93782      |     107649
       6  | 23:55.25 |    5:35.25   |      107650      |     132799
       7  | 29:30.50 |    4:22.72   |      132800      |     152521
       8  | 33:53.47 |    5:07.58   |      152522      |     175604
       9  | 39:01.30 |    5:01.55   |      175605      |     198234
      10  | 44:03.10 |    4:40.52   |      198235      |     219286
      11  | 48:43.62 |    3:47.10   |      219287      |     236321
      12  | 52:30.72 |    3:41.38   |      236322      |     252934
      13  | 56:12.35 |    4:42.30   |      252935      |     274114
      14  | 60:54.65 |    4:24.10   |      274115      |     293924
      15  | 65:19.00 |    4:44.20   |      293925      |     315244
      16  | 70:03.20 |    3:41.55   |      315245      |     331874
Характеристики диапазона извлечения и сообщения об ошибках
Выбранный диапазон
     Имя файла D:\We Came To Dance - Indie Dancefloor\Various - We Came To Dance  Vol. 10.1997\Disc 1\Various - We Came To Dance Vol.10  (CD1).wav
     Пиковый уровень 100.0 %
     Скорость извлечения 13.0 X
     Качество диапазона 99.9 %
     CRC копии B67AC880
     Копирование... OK
Ошибок не произошло
AccurateRip: сводка
Трек  1  : извлечено точно (доверие 13)  [707FC0B4]  (AR v2)
Трек  2  : извлечено точно (доверие 13)  [A0CE4840]  (AR v2)
Трек  3  : извлечено точно (доверие 13)  [F7C0FC98]  (AR v2)
Трек  4  : извлечено точно (доверие 13)  [5043F41D]  (AR v2)
Трек  5  : извлечено точно (доверие 13)  [C6B6F32D]  (AR v2)
Трек  6  : извлечено точно (доверие 13)  [6E94EB60]  (AR v2)
Трек  7  : извлечено точно (доверие 13)  [8BE364F2]  (AR v2)
Трек  8  : извлечено точно (доверие 13)  [9B0C12D1]  (AR v2)
Трек  9  : извлечено точно (доверие 13)  [4BDEABEB]  (AR v2)
Трек 10  : извлечено точно (доверие 13)  [660CC7BB]  (AR v2)
Трек 11  : извлечено точно (доверие 12)  [79F86635]  (AR v2)
Трек 12  : извлечено точно (доверие 13)  [F5AB1056]  (AR v2)
Трек 13  : извлечено точно (доверие 13)  [DC09C71B]  (AR v2)
Трек 14  : извлечено точно (доверие 13)  [32508101]  (AR v2)
Трек 15  : извлечено точно (доверие 13)  [53292797]  (AR v2)
Трек 16  : извлечено точно (доверие 13)  [2AEEAF32]  (AR v2)
Все треки извлечены точно
Конец отчёта
---- CUETools DB Plugin V2.1.6
[CTDB TOCID: hSOyiBs2TigfGTp.t3q8QrmNTPk-] found
Submit result: already submitted
Track | CTDB Status
  1   | (35/35) Accurately ripped
  2   | (35/35) Accurately ripped
  3   | (35/35) Accurately ripped
  4   | (35/35) Accurately ripped
  5   | (35/35) Accurately ripped
  6   | (35/35) Accurately ripped
  7   | (34/35) Accurately ripped
  8   | (35/35) Accurately ripped
  9   | (35/35) Accurately ripped
 10   | (35/35) Accurately ripped
 11   | (35/35) Accurately ripped
 12   | (35/35) Accurately ripped
 13   | (35/35) Accurately ripped
 14   | (34/35) Accurately ripped
 15   | (35/35) Accurately ripped
 16   | (35/35) Accurately ripped
==== Контрольная сумма отчёта 59F8D001EF2D10BBB267DE1782C9E1A037CB668F63986824D255897A7AAA6180 ====
CD2 :
Exact Audio Copy V1.3 from 2. September 2016
Отчёт EAC об извлечении, выполненном 13. марта 2020, 14:12
Various / We Came To Dance Vol.10 disk 2
Дисковод: HL-DT-STDVD+-RW GU90N   Adapter: 1  ID: 0
Режим чтения                 : Достоверность
Использование точного потока : Да
Отключение кэша аудио        : Нет
Использование указателей C2  : Да
Коррекция смещения при чтении                     : 102
Способность читать области Lead-in и Lead-out     : Нет
Заполнение пропущенных сэмплов тишиной            : Да
Удаление блоков с тишиной в начале и конце        : Нет
При вычислениях CRC использовались нулевые сэмплы : Да
Интерфейс                                         : Встроенный Win32-интерфейс для Win NT/2000
Выходной формат : Внутренние WAV-операции
Формат сэмплов  : 44.100 Гц; 16 бит; стерео
TOC извлечённого CD
     Трек |   Старт  | Длительность | Начальный сектор | Конечный сектор
    ---------------------------------------------------------------------
       1  |  0:00.00 |    6:15.17   |           0      |      28141
       2  |  6:15.17 |    5:01.10   |       28142      |      50726
       3  | 11:16.27 |    5:06.13   |       50727      |      73689
       4  | 16:22.40 |    3:53.40   |       73690      |      91204
       5  | 20:16.05 |    5:14.60   |       91205      |     114814
       6  | 25:30.65 |    4:25.67   |      114815      |     134756
       7  | 29:56.57 |    4:59.20   |      134757      |     157201
       8  | 34:56.02 |    3:14.68   |      157202      |     171819
       9  | 38:10.70 |    4:05.45   |      171820      |     190239
      10  | 42:16.40 |    4:42.60   |      190240      |     211449
      11  | 46:59.25 |    5:18.70   |      211450      |     235369
      12  | 52:18.20 |    6:45.22   |      235370      |     265766
      13  | 59:03.42 |    4:48.18   |      265767      |     287384
      14  | 63:51.60 |    3:58.10   |      287385      |     305244
      15  | 67:49.70 |    3:06.05   |      305245      |     319199
      16  | 70:56.00 |    5:09.00   |      319200      |     342374
Характеристики диапазона извлечения и сообщения об ошибках
Выбранный диапазон
     Имя файла D:\We Came To Dance - Indie Dancefloor\Various - We Came To Dance  Vol. 10.1997\Disc 2\Various - We Came To Dance Vol.10 disk 2.wav
     Пиковый уровень 100.0 %
     Скорость извлечения 13.0 X
     Качество диапазона 100.0 %
     CRC копии 814B47EE
     Копирование... OK
Ошибок не произошло
AccurateRip: сводка
Трек  1  : извлечено точно (доверие 12)  [EB1017A1]  (AR v2)
Трек  2  : извлечено точно (доверие 12)  [A02DA727]  (AR v2)
Трек  3  : извлечено точно (доверие 12)  [5E533191]  (AR v2)
Трек  4  : извлечено точно (доверие 12)  [311C86AB]  (AR v2)
Трек  5  : извлечено точно (доверие 12)  [F0F06AC7]  (AR v2)
Трек  6  : извлечено точно (доверие 12)  [017CCD8B]  (AR v2)
Трек  7  : извлечено точно (доверие 12)  [5D2D5995]  (AR v2)
Трек  8  : извлечено точно (доверие 12)  [876BB0F1]  (AR v2)
Трек  9  : извлечено точно (доверие 12)  [787057A2]  (AR v2)
Трек 10  : извлечено точно (доверие 12)  [4E8686AA]  (AR v2)
Трек 11  : извлечено точно (доверие 11)  [26166DAF]  (AR v2)
Трек 12  : извлечено точно (доверие 12)  [316EA45C]  (AR v2)
Трек 13  : извлечено точно (доверие 12)  [28174163]  (AR v2)
Трек 14  : извлечено точно (доверие 12)  [E5DCF8B0]  (AR v2)
Трек 15  : извлечено точно (доверие 12)  [C0175E30]  (AR v2)
Трек 16  : извлечено точно (доверие 12)  [18071A65]  (AR v2)
Все треки извлечены точно
Конец отчёта
---- CUETools DB Plugin V2.1.6
[CTDB TOCID: RYQeHYImCGnIqwiCF9XJI.lUc8k-] found
Submit result: already submitted
Track | CTDB Status
  1   | (33/33) Accurately ripped
  2   | (33/33) Accurately ripped
  3   | (33/33) Accurately ripped
  4   | (33/33) Accurately ripped
  5   | (33/33) Accurately ripped
  6   | (33/33) Accurately ripped
  7   | (33/33) Accurately ripped
  8   | (33/33) Accurately ripped
  9   | (33/33) Accurately ripped
 10   | (33/33) Accurately ripped
 11   | (33/33) Accurately ripped
 12   | (33/33) Accurately ripped
 13   | (32/33) Accurately ripped
 14   | (33/33) Accurately ripped
 15   | (33/33) Accurately ripped
 16   | (33/33) Accurately ripped
==== Контрольная сумма отчёта B56C74D6843794885628D9DF27664589B90E6D39FF223F2AB77E5CFB9893B54E ====
Код:
CD 1 :
REM GENRE Indie
REM DATE 1997
REM DISCID DE114910
REM COMMENT "ExactAudioCopy v1.3"
PERFORMER "Various"
TITLE "We Came To Dance Vol.10  (CD1)"
REM COMPOSER ""
FILE "Various - We Came To Dance Vol.10  (CD1).flac" WAVE
  TRACK 01 AUDIO
    TITLE "Morphedus"
    PERFORMER "Skinny Puppy"
    REM COMPOSER ""
    INDEX 01 00:00:00
  TRACK 02 AUDIO
    TITLE "Isolation (remix)"
    PERFORMER "Die Krupps"
    REM COMPOSER ""
    INDEX 00 05:42:72
    INDEX 01 05:43:00
  TRACK 03 AUDIO
    TITLE "Deliverance (Das Ich-remix)"
    PERFORMER "Atrocity"
    REM COMPOSER ""
    INDEX 00 09:46:60
    INDEX 01 09:47:15
  TRACK 04 AUDIO
    TITLE "Ich Bin Der Brennende Komet"
    PERFORMER "Lacrimosa"
    REM COMPOSER ""
    INDEX 00 13:49:27
    INDEX 01 13:50:17
  TRACK 05 AUDIO
    TITLE "I Can't Enjoy It"
    PERFORMER "Blind Passengers"
    REM COMPOSER ""
    INDEX 00 20:50:25
    INDEX 01 20:50:32
  TRACK 06 AUDIO
    TITLE "San Diego (97er version)"
    PERFORMER "Cyan"
    REM COMPOSER ""
    INDEX 00 23:55:12
    INDEX 01 23:55:25
  TRACK 07 AUDIO
    TITLE "Erkaufte Traume (Gim-mix)"
    PERFORMER "Goethes Erben"
    REM COMPOSER ""
    INDEX 00 29:30:45
    INDEX 01 29:30:50
  TRACK 08 AUDIO
    TITLE "Der Trieb (Triebtater-mix)"
    PERFORMER "Umbra Et Imago"
    REM COMPOSER ""
    INDEX 00 33:53:35
    INDEX 01 33:53:47
  TRACK 09 AUDIO
    TITLE "Dusk (exclusive remix)"
    PERFORMER "Dreadful Shadows"
    REM COMPOSER ""
    INDEX 00 39:01:25
    INDEX 01 39:01:30
  TRACK 10 AUDIO
    TITLE "This Empty Ocean"
    PERFORMER "Love Like Blood"
    REM COMPOSER ""
    INDEX 00 44:02:35
    INDEX 01 44:03:10
  TRACK 11 AUDIO
    TITLE "Small World"
    PERFORMER "Secret Dicovery"
    REM COMPOSER ""
    INDEX 00 48:43:12
    INDEX 01 48:43:62
  TRACK 12 AUDIO
    TITLE "Santos Inocentes (Hirsch-mix)"
    PERFORMER "Calva Y Nada"
    REM COMPOSER ""
    INDEX 00 52:30:70
    INDEX 01 52:30:72
  TRACK 13 AUDIO
    TITLE "Kill A Raver!"
    PERFORMER "Le.ther Strip"
    REM COMPOSER ""
    INDEX 00 56:12:30
    INDEX 01 56:12:35
  TRACK 14 AUDIO
    TITLE "Misery (Lights Of Euphoria-mix)"
    PERFORMER "Psyche"
    REM COMPOSER ""
    INDEX 00 60:54:15
    INDEX 01 60:54:65
  TRACK 15 AUDIO
    TITLE "Der Unbesiegte Sonnengott (remix)"
    PERFORMER "Forthcoming Fire"
    REM COMPOSER ""
    INDEX 00 65:18:65
    INDEX 01 65:19:00
  TRACK 16 AUDIO
    TITLE "November Days (slow motion mix)"
    PERFORMER "Inside"
    REM COMPOSER ""
    INDEX 00 70:03:07
    INDEX 01 70:03:20
CD 2 :
REM GENRE Darkwave
REM DATE 1997
REM DISCID F711D510
REM COMMENT "ExactAudioCopy v1.3"
PERFORMER "Various"
TITLE "We Came To Dance Vol.10 disk 2"
REM COMPOSER ""
FILE "Various - We Came To Dance Vol.10 disk 2.flac" WAVE
  TRACK 01 AUDIO
    TITLE "Can I Do What I Want?"
    PERFORMER "Shock Therapy"
    REM COMPOSER ""
    INDEX 01 00:00:00
  TRACK 02 AUDIO
    TITLE "Touch (album version)"
    PERFORMER "Klinik"
    REM COMPOSER ""
    INDEX 00 06:14:50
    INDEX 01 06:15:17
  TRACK 03 AUDIO
    TITLE "Furnace (231° F-mix)"
    PERFORMER "New Mind"
    REM COMPOSER ""
    INDEX 00 11:16:12
    INDEX 01 11:16:27
  TRACK 04 AUDIO
    TITLE "Shockwaved"
    PERFORMER "Still Silent"
    REM COMPOSER ""
    INDEX 00 16:21:67
    INDEX 01 16:22:40
  TRACK 05 AUDIO
    TITLE "Chameleon"
    PERFORMER "Still Patient?"
    REM COMPOSER ""
    INDEX 00 20:15:32
    INDEX 01 20:16:05
  TRACK 06 AUDIO
    TITLE "Suchtig!"
    PERFORMER "Dorsetshire"
    REM COMPOSER ""
    INDEX 00 25:30:00
    INDEX 01 25:30:65
  TRACK 07 AUDIO
    TITLE "Violent World"
    PERFORMER "Ravenous"
    REM COMPOSER ""
    INDEX 00 29:55:22
    INDEX 01 29:56:57
  TRACK 08 AUDIO
    TITLE "A Fragile Tomorrow"
    PERFORMER "Aqua"
    REM COMPOSER ""
    INDEX 00 34:55:55
    INDEX 01 34:56:02
  TRACK 09 AUDIO
    TITLE "Organics"
    PERFORMER "Evil's Toy"
    REM COMPOSER ""
    INDEX 00 38:10:32
    INDEX 01 38:10:70
  TRACK 10 AUDIO
    TITLE "Die For Jehova"
    PERFORMER "Birmingham 6"
    REM COMPOSER ""
    INDEX 00 42:16:00
    INDEX 01 42:16:40
  TRACK 11 AUDIO
    TITLE "Become An Angel (excl. mix)"
    PERFORMER "In Strict Confidence"
    REM COMPOSER ""
    INDEX 00 46:59:15
    INDEX 01 46:59:25
  TRACK 12 AUDIO
    TITLE "Sun (Flot Shot-remix)"
    PERFORMER "Under The Noise"
    REM COMPOSER ""
    INDEX 00 52:17:62
    INDEX 01 52:18:20
  TRACK 13 AUDIO
    TITLE "The Game (shattered)"
    PERFORMER "Abscess"
    REM COMPOSER ""
    INDEX 00 59:02:72
    INDEX 01 59:03:42
  TRACK 14 AUDIO
    TITLE "Radioactive Love"
    PERFORMER "Daily Planet"
    REM COMPOSER ""
    INDEX 00 63:51:12
    INDEX 01 63:51:60
  TRACK 15 AUDIO
    TITLE "Blind Man Dreams"
    PERFORMER "Elegant Machinery"
    REM COMPOSER ""
    INDEX 00 67:49:22
    INDEX 01 67:49:70
  TRACK 16 AUDIO
    TITLE "In Power We Entrust To Love"
    PERFORMER "Chandeen"
    REM COMPOSER ""
    INDEX 00 70:55:17
    INDEX 01 70:56:00
Код:
 CD 1 :
foobar2000 1.4 / Dynamic Range Meter 1.1.1
log date: 2020-03-13 13:59:54
--------------------------------------------------------------------------------
Analyzed: Atrocity / We Came To Dance Vol.10  (CD1) (1)
          Blind Passengers / We Came To Dance Vol.10  (CD1) (2)
          Calva Y Nada / We Came To Dance Vol.10  (CD1) (3)
--------------------------------------------------------------------------------
DR         Peak         RMS     Duration Track
--------------------------------------------------------------------------------
DR8       -0.27 dB    -9.07 dB      4:03 03-Deliverance (Das Ich-remix)
DR9       -0.07 dB   -11.07 dB      3:05 05-I Can't Enjoy It
DR5       -1.13 dB    -7.82 dB      3:42 12-Santos Inocentes (Hirsch-mix)
--------------------------------------------------------------------------------
Number of tracks:  3
Official DR value: DR7
Samplerate:        44100 Hz
Channels:          2
Bits per sample:   16
Bitrate:           1411 kbps
Codec:             PCM
================================================================================
--------------------------------------------------------------------------------
Statistics for: 06-San Diego (97er version)
Number of samples: 14788200
Duration: 5:35
--------------------------------------------------------------------------------
                 Left              Right
Peak Value:     -0.14 dB   ---     -0.14 dB
Avg RMS:       -11.61 dB   ---    -11.77 dB
DR channel:      8.91 dB   ---      9.04 dB
--------------------------------------------------------------------------------
Official DR Value: DR9
Samplerate:        44100 Hz
Channels:          2
Bits per sample:   16
Bitrate:           1411 kbps
Codec:             PCM
================================================================================
--------------------------------------------------------------------------------
Analyzed: Goethes Erben / We Came To Dance Vol.10  (CD1) (1)
          Inside / We Came To Dance Vol.10  (CD1) (2)
--------------------------------------------------------------------------------
DR         Peak         RMS     Duration Track
--------------------------------------------------------------------------------
DR9       -0.07 dB   -10.87 dB      4:23 07-Erkaufte Traume (Gim-mix)
DR11       0.00 dB   -12.53 dB      3:42 16-November Days (slow motion mix)
--------------------------------------------------------------------------------
Number of tracks:  2
Official DR value: DR10
Samplerate:        44100 Hz
Channels:          2
Bits per sample:   16
Bitrate:           1411 kbps
Codec:             PCM
================================================================================
--------------------------------------------------------------------------------
Analyzed: Lacrimosa / We Came To Dance Vol.10  (CD1) (1)
          Le.ther Strip / We Came To Dance Vol.10  (CD1) (2)
--------------------------------------------------------------------------------
DR         Peak         RMS     Duration Track
--------------------------------------------------------------------------------
DR7       -0.18 dB    -8.77 dB      7:00 04-Ich Bin Der Brennende Komet
DR8       -0.07 dB   -10.62 dB      4:42 13-Kill A Raver!
--------------------------------------------------------------------------------
Number of tracks:  2
Official DR value: DR8
Samplerate:        44100 Hz
Channels:          2
Bits per sample:   16
Bitrate:           1411 kbps
Codec:             PCM
================================================================================
--------------------------------------------------------------------------------
Analyzed: Love Like Blood / We Came To Dance Vol.10  (CD1) (1)
          Psyche / We Came To Dance Vol.10  (CD1) (2)
--------------------------------------------------------------------------------
DR         Peak         RMS     Duration Track
--------------------------------------------------------------------------------
DR8       -0.10 dB   -11.08 dB      4:41 10-This Empty Ocean
DR9       -0.07 dB   -11.59 dB      4:24 14-Misery (Lights Of Euphoria-mix)
--------------------------------------------------------------------------------
Number of tracks:  2
Official DR value: DR9
Samplerate:        44100 Hz
Channels:          2
Bits per sample:   16
Bitrate:           1411 kbps
Codec:             PCM
================================================================================
--------------------------------------------------------------------------------
Statistics for: 11-Small World
Number of samples: 10016580
Duration: 3:47
--------------------------------------------------------------------------------
                 Left              Right
Peak Value:     -0.07 dB   ---     -0.07 dB
Avg RMS:        -7.65 dB   ---     -7.52 dB
DR channel:      6.75 dB   ---      6.67 dB
--------------------------------------------------------------------------------
Official DR Value: DR7
Samplerate:        44100 Hz
Channels:          2
Bits per sample:   16
Bitrate:           1411 kbps
Codec:             PCM
================================================================================
--------------------------------------------------------------------------------
Analyzed: Skinny Puppy / We Came To Dance Vol.10  (CD1) (1)
          Umbra Et Imago / We Came To Dance Vol.10  (CD1) (2)
--------------------------------------------------------------------------------
DR         Peak         RMS     Duration Track
--------------------------------------------------------------------------------
DR8       -0.07 dB   -10.84 dB      5:43 01-Morphedus
DR9       -0.07 dB   -10.33 dB      5:08 08-Der Trieb (Triebtater-mix)
--------------------------------------------------------------------------------
Number of tracks:  2
Official DR value: DR8
Samplerate:        44100 Hz
Channels:          2
Bits per sample:   16
Bitrate:           1411 kbps
Codec:             PCM
==============================================================
CD 2 :
foobar2000 1.4 / Dynamic Range Meter 1.1.1
log date: 2020-03-13 14:14:15
--------------------------------------------------------------------------------
Analyzed: Aqua / We Came To Dance Vol.10 disk 2 (1)
          Birmingham 6 / We Came To Dance Vol.10 disk 2 (2)
          Chandeen / We Came To Dance Vol.10 disk 2 (3)
--------------------------------------------------------------------------------
DR         Peak         RMS     Duration Track
--------------------------------------------------------------------------------
DR7       -0.14 dB    -8.41 dB      3:15 08-A Fragile Tomorrow
DR8       -0.07 dB    -8.62 dB      4:43 10-Die For Jehova
DR6       -0.14 dB    -7.12 dB      5:09 16-In Power We Entrust To Love
--------------------------------------------------------------------------------
Number of tracks:  3
Official DR value: DR7
Samplerate:        44100 Hz
Channels:          2
Bits per sample:   16
Bitrate:           1411 kbps
Codec:             PCM
================================================================================
--------------------------------------------------------------------------------
Statistics for: 14-Radioactive Love
Number of samples: 10501680
Duration: 3:58
--------------------------------------------------------------------------------
                 Left              Right
Peak Value:      0.00 dB   ---      0.00 dB
Avg RMS:       -11.68 dB   ---    -11.27 dB
DR channel:     10.42 dB   ---     10.00 dB
--------------------------------------------------------------------------------
Official DR Value: DR10
Samplerate:        44100 Hz
Channels:          2
Bits per sample:   16
Bitrate:           1411 kbps
Codec:             PCM
================================================================================
--------------------------------------------------------------------------------
Analyzed: Evil's Toy / We Came To Dance Vol.10 disk 2 (1)
          In Strict Confidence / We Came To Dance Vol.10 disk 2 (2)
--------------------------------------------------------------------------------
DR         Peak         RMS     Duration Track
--------------------------------------------------------------------------------
DR7        0.00 dB    -8.79 dB      4:06 09-Organics
DR9       -0.07 dB   -10.61 dB      5:19 11-Become An Angel (excl. mix)
--------------------------------------------------------------------------------
Number of tracks:  2
Official DR value: DR8
Samplerate:        44100 Hz
Channels:          2
Bits per sample:   16
Bitrate:           1411 kbps
Codec:             PCM
================================================================================
--------------------------------------------------------------------------------
Analyzed: Klinik / We Came To Dance Vol.10 disk 2 (1)
          New Mind / We Came To Dance Vol.10 disk 2 (2)
          Ravenous / We Came To Dance Vol.10 disk 2 (3)
--------------------------------------------------------------------------------
DR         Peak         RMS     Duration Track
--------------------------------------------------------------------------------
DR8       -0.07 dB   -10.83 dB      5:01 02-Touch (album version)
DR7       -0.73 dB    -8.66 dB      5:06 03-Furnace (231В° F-mix)
DR8        0.00 dB    -9.42 dB      4:59 07-Violent World
--------------------------------------------------------------------------------
Number of tracks:  3
Official DR value: DR7
Samplerate:        44100 Hz
Channels:          2
Bits per sample:   16
Bitrate:           1411 kbps
Codec:             PCM
================================================================================
--------------------------------------------------------------------------------
Analyzed: Still Silent / We Came To Dance Vol.10 disk 2 (1)
          Under The Noise / We Came To Dance Vol.10 disk 2 (2)
--------------------------------------------------------------------------------
DR         Peak         RMS     Duration Track
--------------------------------------------------------------------------------
DR9        0.00 dB   -12.27 dB      3:54 04-Shockwaved
DR9        0.00 dB   -11.12 dB      6:45 12-Sun (Flot Shot-remix)
--------------------------------------------------------------------------------
Number of tracks:  2
Official DR value: DR9
Samplerate:        44100 Hz
Channels:          2
Bits per sample:   16
Bitrate:           1411 kbps
Codec:             PCM
==============================================================
foobar2000 1.4 / Dynamic Range Meter 1.1.1
log date: 2020-03-13 14:14:13
--------------------------------------------------------------------------------
Statistics for: 13-The Game (shattered)
Number of samples: 12711384
Duration: 4:48
--------------------------------------------------------------------------------
                 Left              Right
Peak Value:      0.00 dB   ---      0.00 dB
Avg RMS:        -9.31 dB   ---     -8.92 dB
DR channel:      8.14 dB   ---      7.77 dB
--------------------------------------------------------------------------------
Official DR Value: DR8
Samplerate:        44100 Hz
Channels:          2
Bits per sample:   16
Bitrate:           1411 kbps
Codec:             PCM
==============================================================
Правила, инструкции, FAQ!!!
Торрент  Добавлен [26 июн 2020, 17:53] Скачать торрент Магнет ссылка
Скачать торрент
[ Размер 11.27 КБ / Просмотров 5 ]

Статус
Проверен 
 
Размер  1.01 ГБ
Приватный: Нет (DHT включён)
.torrent скачан  0
 


     Отправить личное сообщение
   
Страница 1 из 1
Показать сообщения за:  Поле сортировки  
Начать новую тему Ответить на тему


Сейчас этот форум просматривают: нет зарегистрированных пользователей и гости: 0


Вы не можете начинать темы
Вы не можете отвечать на сообщения
Вы не можете редактировать свои сообщения
Вы не можете удалять свои сообщения
Вы не можете добавлять вложения

Перейти:  
cron