Начать новую тему Ответить на тему
Статистика раздачи
Размер: 495.81 МБ | Добавлен: 26 июн 2020, 20:16 | Скачали: 0
Сидеров: 0  [0 байт/сек]    Личеров: 0  [0 байт/сек]
Пред. тема | След. тема 

Автор
Сообщение

СообщениеДобавлено: 26 июн 2020, 20:16 

Ответить с цитатой 

Skinny Puppy / Land of Technology [Bootleg]
Жанр: Industrial, EBM, Electronic
Страна-производитель диска: EU
Год издания: 1993
Издатель (лейбл): Exactor Mortis
Номер по каталогу: em90093
Аудиокодек: FLAC (*.flac)
Тип рипа: tracks+.cue
Битрейт аудио: lossless
Продолжительность: 01:15:43
Источник (релизер): What.CD (Uploaded by skinflower)
Наличие сканов в содержимом раздачи: нет
Треклист:
1. Skinny Puppy - Smothered Hope [7:07]
2. Skinny Puppy - Assimilate [7:19]
3. Skinny Puppy - A Perfect Simulation (Demo) [2:48]
4. Skinny Puppy - Incision (Demo) [4:40]
5. Skinny Puppy - Addiction (Demo) [7:31]
6. Skinny Puppy - Glass Houses [4:25]
7. Skinny Puppy - Brap [2:49]
8. Skinny Puppy - Far Too Frail [3:40]
9. Skinny Puppy - Icebreaker (Demo) [3:11]
10. Skinny Puppy - Christianity (Demo) [1:34]
11. Skinny Puppy - Glass Houses (Demo) [3:19]
12. Skinny Puppy - The Choke [6:42]
13. Skinny Puppy - Addiction [6:11]
14. Skinny Puppy - Falling (Demo) [4:22]
15. Skinny Puppy - Dead Line [6:21]
16. Bill Leeb - Resistance [4:31]
Код:
Exact Audio Copy V1.0 beta 1 from 15. November 2010
EAC extraction logfile from 20. March 2011, 16:42
Skinny Puppy / Land of Technology (Bootleg)
Used drive  : HL-DT-STDVD-RAM GSA-H20L   Adapter: 0  ID: 2
Read mode               : Secure
Utilize accurate stream : Yes
Defeat audio cache      : Yes
Make use of C2 pointers : No
Read offset correction                      : 102
Overread into Lead-In and Lead-Out          : No
Fill up missing offset samples with silence : Yes
Delete leading and trailing silent blocks   : No
Null samples used in CRC calculations       : Yes
Used interface                              : Native Win32 interface for Win NT & 2000
Gap handling                                : Appended to previous track
Used output format              : User Defined Encoder
Selected bitrate                : 320 kBit/s
Quality                         : High
Add ID3 tag                     : No
Command line compressor         : C:\Programme\Exact Audio Copy\Flac\flac.exe
Additional command line options : -V -8 -T "artist=%a" -T "title=%t" -T "album=%g" -T "date=%y" -T "tracknumber=%n" -T "genre=%m" %s
TOC of the extracted CD
     Track |   Start  |  Length  | Start sector | End sector
    ---------------------------------------------------------
        1  |  0:00.32 |  7:07.05 |        32    |    32061
        2  |  7:07.37 |  7:16.13 |     32062    |    64774
        3  | 14:23.50 |  2:49.57 |     64775    |    77506
        4  | 17:13.32 |  4:38.23 |     77507    |    98379
        5  | 21:51.55 |  7:29.32 |     98380    |   132086
        6  | 29:21.12 |  4:23.45 |    132087    |   151856
        7  | 33:44.57 |  2:45.73 |    151857    |   164304
        8  | 36:30.55 |  3:39.67 |    164305    |   180796
        9  | 40:10.47 |  3:09.55 |    180797    |   195026
       10  | 43:20.27 |  1:32.33 |    195027    |   201959
       11  | 44:52.60 |  3:16.72 |    201960    |   216731
       12  | 48:09.57 |  6:41.08 |    216732    |   246814
       13  | 54:50.65 |  6:08.25 |    246815    |   274439
       14  | 60:59.15 |  4:20.10 |    274440    |   293949
       15  | 65:19.25 |  6:17.62 |    293950    |   322286
       16  | 71:37.12 |  4:06.65 |    322287    |   340801
Track  1
     Filename C:\__[__waffles__]__\uppse\what.CD\Skinny Puppy -  - Land of Technology (Bootleg)\01 - Smothered Hope (Live Tour 1988).wav
     Pre-gap length  0:00:02.42
     Peak level 88.2 %
     Extraction speed 2.0 X
     Track quality 100.0 %
     Test CRC F8DF667C
     Copy CRC F8DF667C
     Accurately ripped (confidence 1)  [33D28205]
     Copy OK
Track  2
     Filename C:\__[__waffles__]__\uppse\what.CD\Skinny Puppy -  - Land of Technology (Bootleg)\02 - Assimilate (Live Tour 1988).wav
     Pre-gap length  0:00:03.62
     Peak level 89.7 %
     Extraction speed 2.3 X
     Track quality 100.0 %
     Test CRC 3F7C4085
     Copy CRC 3F7C4085
     Accurately ripped (confidence 1)  [F1083383]
     Copy OK
Track  3
     Filename C:\__[__waffles__]__\uppse\what.CD\Skinny Puppy -  - Land of Technology (Bootleg)\03 - A Perfect Simulation (Demo).wav
     Pre-gap length  0:00:03.26
     Peak level 67.1 %
     Extraction speed 2.1 X
     Track quality 100.0 %
     Test CRC CD8DAFFE
     Copy CRC CD8DAFFE
     Accurately ripped (confidence 1)  [0D39ADE7]
     Copy OK
Track  4
     Filename C:\__[__waffles__]__\uppse\what.CD\Skinny Puppy -  - Land of Technology (Bootleg)\04 - Incision (Demo).wav
     Pre-gap length  0:00:01.82
     Peak level 99.9 %
     Extraction speed 2.4 X
     Track quality 100.0 %
     Test CRC 6AD6AEED
     Copy CRC 6AD6AEED
     Accurately ripped (confidence 1)  [F31A255B]
     Copy OK
Track  5
     Filename C:\__[__waffles__]__\uppse\what.CD\Skinny Puppy -  - Land of Technology (Bootleg)\05 - Addiction (Demo).wav
     Pre-gap length  0:00:01.80
     Peak level 100.0 %
     Extraction speed 2.7 X
     Track quality 100.0 %
     Test CRC 5BE4245A
     Copy CRC 5BE4245A
     Accurately ripped (confidence 1)  [E07FD44F]
     Copy OK
Track  6
     Filename C:\__[__waffles__]__\uppse\what.CD\Skinny Puppy -  - Land of Technology (Bootleg)\06 - Glass Houses (Germany 1986).wav
     Pre-gap length  0:00:02.62
     Peak level 93.6 %
     Extraction speed 2.8 X
     Track quality 100.0 %
     Test CRC 9E314FE0
     Copy CRC 9E314FE0
     Accurately ripped (confidence 1)  [D8C2E430]
     Copy OK
Track  7
     Filename C:\__[__waffles__]__\uppse\what.CD\Skinny Puppy -  - Land of Technology (Bootleg)\07 - Brap (Germany 1986).wav
     Peak level 64.4 %
     Extraction speed 2.6 X
     Track quality 100.0 %
     Test CRC 23B37AF1
     Copy CRC 23B37AF1
     Accurately ripped (confidence 1)  [40D13BC9]
     Copy OK
Track  8
     Filename C:\__[__waffles__]__\uppse\what.CD\Skinny Puppy -  - Land of Technology (Bootleg)\08 - Far Too Frail (Germany 1986).wav
     Peak level 100.0 %
     Extraction speed 2.9 X
     Track quality 100.0 %
     Test CRC D05B801B
     Copy CRC D05B801B
     Accurately ripped (confidence 1)  [C3DD3D97]
     Copy OK
Track  9
     Filename C:\__[__waffles__]__\uppse\what.CD\Skinny Puppy -  - Land of Technology (Bootleg)\09 - Icebreaker (Demo).wav
     Pre-gap length  0:00:01.40
     Peak level 100.0 %
     Extraction speed 2.9 X
     Track quality 100.0 %
     Test CRC 75D31890
     Copy CRC 75D31890
     Accurately ripped (confidence 1)  [B48789B8]
     Copy OK
Track 10
     Filename C:\__[__waffles__]__\uppse\what.CD\Skinny Puppy -  - Land of Technology (Bootleg)\10 - Christianity (Demo).wav
     Pre-gap length  0:00:01.16
     Peak level 95.5 %
     Extraction speed 2.5 X
     Track quality 100.0 %
     Test CRC CC7453AB
     Copy CRC CC7453AB
     Accurately ripped (confidence 1)  [0E4BCC57]
     Copy OK
Track 11
     Filename C:\__[__waffles__]__\uppse\what.CD\Skinny Puppy -  - Land of Technology (Bootleg)\11 - Glass Houses (Demo).wav
     Pre-gap length  0:00:04.00
     Peak level 100.0 %
     Extraction speed 3.0 X
     Track quality 100.0 %
     Test CRC 04902BCE
     Copy CRC 04902BCE
     Accurately ripped (confidence 1)  [23660F80]
     Copy OK
Track 12
     Filename C:\__[__waffles__]__\uppse\what.CD\Skinny Puppy -  - Land of Technology (Bootleg)\12 - The Choke (Live Tour 1988).wav
     Pre-gap length  0:00:01.02
     Peak level 90.1 %
     Extraction speed 3.2 X
     Track quality 99.9 %
     Test CRC E311B4BA
     Copy CRC E311B4BA
     Accurately ripped (confidence 1)  [1131A94B]
     Copy OK
Track 13
     Filename C:\__[__waffles__]__\uppse\what.CD\Skinny Puppy -  - Land of Technology (Bootleg)\13 - Addiction (Live Tour 1988).wav
     Peak level 95.9 %
     Extraction speed 3.6 X
     Track quality 100.0 %
     Test CRC 53C92BAD
     Copy CRC 53C92BAD
     Accurately ripped (confidence 1)  [3E9C5AF5]
     Copy OK
Track 14
     Filename C:\__[__waffles__]__\uppse\what.CD\Skinny Puppy -  - Land of Technology (Bootleg)\14 - Falling (Demo).wav
     Pre-gap length  0:00:03.26
     Peak level 100.0 %
     Extraction speed 3.5 X
     Track quality 100.0 %
     Test CRC B9C5C566
     Copy CRC B9C5C566
     Accurately ripped (confidence 1)  [059023BA]
     Copy OK
Track 15
     Filename C:\__[__waffles__]__\uppse\what.CD\Skinny Puppy -  - Land of Technology (Bootleg)\15 - Deadlines (Germany 1986).wav
     Pre-gap length  0:00:01.24
     Peak level 100.0 %
     Extraction speed 3.7 X
     Track quality 100.0 %
     Test CRC 4FE430D6
     Copy CRC 4FE430D6
     Accurately ripped (confidence 1)  [BCDC4EA1]
     Copy OK
Track 16
     Filename C:\__[__waffles__]__\uppse\what.CD\Skinny Puppy -  - Land of Technology (Bootleg)\16 - Resistance (by Bill Leeb).wav
     Pre-gap length  0:00:05.09
     Peak level 93.6 %
     Extraction speed 3.7 X
     Track quality 100.0 %
     Test CRC 17C887AA
     Copy CRC 17C887AA
     Accurately ripped (confidence 1)  [5E1F4709]
     Copy OK
All tracks accurately ripped
No errors occurred
End of status report
Код:
REM GENRE Industrial
REM DISCID E111C010
REM COMMENT "ExactAudioCopy v1.0b1"
FILE "Skinny Puppy -  - Land of Technology (Bootleg)\01 - Smothered Hope (Live Tour 1988).wav" WAVE
  TRACK 01 AUDIO
    PREGAP 00:00:32
    INDEX 01 00:00:00
  TRACK 02 AUDIO
    INDEX 00 07:03:33
FILE "Skinny Puppy -  - Land of Technology (Bootleg)\02 - Assimilate (Live Tour 1988).wav" WAVE
    INDEX 01 00:00:00
  TRACK 03 AUDIO
    INDEX 00 07:12:68
FILE "Skinny Puppy -  - Land of Technology (Bootleg)\03 - A Perfect Simulation (Demo).wav" WAVE
    INDEX 01 00:00:00
  TRACK 04 AUDIO
    INDEX 00 02:47:70
FILE "Skinny Puppy -  - Land of Technology (Bootleg)\04 - Incision (Demo).wav" WAVE
    INDEX 01 00:00:00
  TRACK 05 AUDIO
    INDEX 00 04:36:38
FILE "Skinny Puppy -  - Land of Technology (Bootleg)\05 - Addiction (Demo).wav" WAVE
    INDEX 01 00:00:00
  TRACK 06 AUDIO
    INDEX 00 07:26:60
FILE "Skinny Puppy -  - Land of Technology (Bootleg)\06 - Glass Houses (Germany 1986).wav" WAVE
    INDEX 01 00:00:00
FILE "Skinny Puppy -  - Land of Technology (Bootleg)\07 - Brap (Germany 1986).wav" WAVE
  TRACK 07 AUDIO
    INDEX 01 00:00:00
FILE "Skinny Puppy -  - Land of Technology (Bootleg)\08 - Far Too Frail (Germany 1986).wav" WAVE
  TRACK 08 AUDIO
    INDEX 01 00:00:00
  TRACK 09 AUDIO
    INDEX 00 03:38:37
FILE "Skinny Puppy -  - Land of Technology (Bootleg)\09 - Icebreaker (Demo).wav" WAVE
    INDEX 01 00:00:00
  TRACK 10 AUDIO
    INDEX 00 03:08:43
FILE "Skinny Puppy -  - Land of Technology (Bootleg)\10 - Christianity (Demo).wav" WAVE
    INDEX 01 00:00:00
  TRACK 11 AUDIO
    INDEX 00 01:28:33
FILE "Skinny Puppy -  - Land of Technology (Bootleg)\11 - Glass Houses (Demo).wav" WAVE
    INDEX 01 00:00:00
  TRACK 12 AUDIO
    INDEX 00 03:15:70
FILE "Skinny Puppy -  - Land of Technology (Bootleg)\12 - The Choke (Live Tour 1988).wav" WAVE
    INDEX 01 00:00:00
FILE "Skinny Puppy -  - Land of Technology (Bootleg)\13 - Addiction (Live Tour 1988).wav" WAVE
  TRACK 13 AUDIO
    INDEX 01 00:00:00
  TRACK 14 AUDIO
    INDEX 00 06:05:05
FILE "Skinny Puppy -  - Land of Technology (Bootleg)\14 - Falling (Demo).wav" WAVE
    INDEX 01 00:00:00
  TRACK 15 AUDIO
    INDEX 00 04:18:67
FILE "Skinny Puppy -  - Land of Technology (Bootleg)\15 - Deadlines (Germany 1986).wav" WAVE
    INDEX 01 00:00:00
  TRACK 16 AUDIO
    INDEX 00 06:12:55
FILE "Skinny Puppy -  - Land of Technology (Bootleg)\16 - Resistance (by Bill Leeb).wav" WAVE
    INDEX 01 00:00:00
A limited amount was issued as a black cardboard boxset.
Правила, инструкции, FAQ!!!
Торрент  Добавлен [26 июн 2020, 20:16] Скачать торрент Магнет ссылка
Скачать торрент
[ Размер 20.95 КБ / Просмотров 14 ]

Статус
Проверен 
 
Размер  495.81 МБ
Приватный: Нет (DHT включён)
.torrent скачан  0
 


     Отправить личное сообщение
   
Страница 1 из 1
Показать сообщения за:  Поле сортировки  
Начать новую тему Ответить на тему


Сейчас этот форум просматривают: нет зарегистрированных пользователей и гости: 0


Вы не можете начинать темы
Вы не можете отвечать на сообщения
Вы не можете редактировать свои сообщения
Вы не можете удалять свои сообщения
Вы не можете добавлять вложения

Перейти:  
cron