Начать новую тему Ответить на тему
Статистика раздачи
Размер: 237.34 МБ | Добавлен: 26 июн 2020, 16:49 | Скачали: 0
Сидеров: 0  [0 байт/сек]    Личеров: 0  [0 байт/сек]
Пред. тема | След. тема 

Автор
Сообщение

СообщениеДобавлено: 26 июн 2020, 16:49 

Ответить с цитатой 

Das Merman - Tief In Der Nacht (Maxi-Single)
Жанр: Industrial, EBM, Electronic
Страна-производитель диска: Germany
Год издания диска: 2009
Издатель (лейбл): Hopeless Endeavors
Номер по каталогу: HECD1
Страна: Germany
Аудио кодек: FLAC (*.flac)
Тип рипа: image+.cue
Битрейт аудио: lossless
Продолжительность: 00:20:47
Источник (релизер): Собственный рип
Наличие сканов в содержимом раздачи: да, TIF 600dpi
Треклист:
01. Tief In Der Nacht 3:37
02. Der Schmerz 4:00
03. Kalt 3:51
04. Das Firnament 3:58
05. Tief In Der Nacht (Extended) 5:19
Редкое издание. Всего один альбом. Любителям жанра, очень понравится.
Код:
Exact Audio Copy V0.99 prebeta 5 from 4. May 2009
Отчёт EAC об извлечении, выполненном 1. мая 2011, 14:40
Das Merman / Das Merman
Дисковод: PIONEER DVD-RW  DVR-212   Adapter: 3  ID: 1
Режим чтения                 : Достоверность
Использование точного потока : Да
Отключение кэша аудио        : Да
Использование указателей C2  : Нет
Коррекция смещения при чтении                     : 48
Способность читать области Lead-in и Lead-out     : Нет
Заполнение пропущенных сэмплов тишиной            : Да
Удаление блоков с тишиной в начале и конце        : Нет
При вычислениях CRC использовались нулевые сэмплы : Да
Интерфейс                                         : Встроенный Win32-интерфейс для Win NT/2000
Выходной формат          : Пользовательский кодировщик
Выбранный битрейт        : 1024 kBit/s
Качество                 : Высокий
Добавление ID3-тэга      : Нет
Утилита сжатия           : C:\Program Files (x86)\Exact Audio Copy\FLAC\FLAC.EXE
Дополнительные параметры : -8 -V %s
TOC извлечённого CD
     Трек |   Старт  | Длительность | Начальный сектор | Конечный сектор
    ---------------------------------------------------------------------
       1  |  0:00.00 |    3:39.69   |           0      |      16493
       2  |  3:39.69 |    4:00.30   |       16494      |      34523
       3  |  7:40.24 |    3:50.49   |       34524      |      51822
       4  | 11:30.73 |    3:57.59   |       51823      |      69656
       5  | 15:28.57 |    5:18.58   |       69657      |      93564
Характеристики диапазона извлечения и сообщения об ошибках
Выбранный диапазон
     Имя файла D:\РАЗДАЧИ!!!!\Das Merman - Das Merman (Maxi-Single ) - 2009\Das Merman - Das Merman.wav
     Пиковый уровень 98.9 %
     Качество диапазона 100.0 %
     CRC теста 8782C761
     CRC копии 8782C761
     Копирование... OK
Ошибок не произошло
AccurateRip: сводка
Трек  1  точное извлечение (доверие 2)  [D0AA0B4C]
Трек  2  точное извлечение (доверие 2)  [8E5603F8]
Трек  3  точное извлечение (доверие 2)  [39FBC793]
Трек  4  точное извлечение (доверие 2)  [325B3AF8]
Трек  5  точное извлечение (доверие 2)  [D3969EB7]
Все треки извлечены точно
Конец отчёта
Код:
 REM DISCID 3004DF05
REM COMMENT "ExactAudioCopy v0.99pb5"
PERFORMER "Das Merman"
TITLE "Das Merman"
FILE "Das Merman - Das Merman.flac" WAVE
  TRACK 01 AUDIO
    TITLE "Tief in der Nacht"
    PERFORMER "Das Merman"
    INDEX 01 00:00:00
  TRACK 02 AUDIO
    TITLE "Der Schmerz"
    PERFORMER "Das Merman"
    INDEX 00 03:37:69
    INDEX 01 03:39:69
  TRACK 03 AUDIO
    TITLE "Kalt"
    PERFORMER "Das Merman"
    INDEX 00 07:38:24
    INDEX 01 07:40:24
  TRACK 04 AUDIO
    TITLE "Das Firmament"
    PERFORMER "Das Merman"
    INDEX 00 11:28:73
    INDEX 01 11:30:73
  TRACK 05 AUDIO
    TITLE "Tief in der Nacht (Extended)"
    PERFORMER "Das Merman"
    INDEX 00 15:26:57
    INDEX 01 15:28:57
 
Код:
AUDIOCHECKER v2.0 beta (build 457) - by Dester - opdester@freemail.hu
~~~~~~~~~~~~~~~~~~~~~~~~~~~~~~~~~~
-=== DO NOT EDIT THIS FILE! ===-
Path: ...\Das Merman - Das Merman (Maxi-Single ) - 2009
1 -=- Das Merman - Das Merman.flac -=- CDDA (100%)
89745492
Доп. информация: Mastered By – Brian Hazard
Правила, инструкции, FAQ!!!
Торрент  Добавлен [26 июн 2020, 16:49] Скачать торрент Магнет ссылка
Скачать торрент
[ Размер 19.38 КБ / Просмотров 19 ]

Статус
Проверен 
 
Размер  237.34 МБ
Приватный: Нет (DHT включён)
.torrent скачан  0
 


     Отправить личное сообщение
   
Страница 1 из 1
Показать сообщения за:  Поле сортировки  
Начать новую тему Ответить на тему


Сейчас этот форум просматривают: нет зарегистрированных пользователей и гости: 0


Вы не можете начинать темы
Вы не можете отвечать на сообщения
Вы не можете редактировать свои сообщения
Вы не можете удалять свои сообщения
Вы не можете добавлять вложения

Перейти:  
cron