Начать новую тему Ответить на тему
Статистика раздачи
Размер: 145.25 МБ | Добавлен: 26 июн 2020, 17:18 | Скачали: 0
Сидеров: 0  [0 байт/сек]    Личеров: 0  [0 байт/сек]
Пред. тема | След. тема 

Автор
Сообщение

СообщениеДобавлено: 26 июн 2020, 17:18 

Ответить с цитатой 

Das Merman / Sharks (EP)
Жанр: Industrial, EBM, Electronic
Страна-производитель диска: US
Год издания: 2011
Издатель (лейбл): A Different Drum
Номер по каталогу: ADDCD1316 VIP Series, mer-hit-2
Страна: Germany
Формат: CD, EP, Limited Edition (300 copies)
Аудиокодек: FLAC (*.flac)
Тип рипа: image+.cue
Битрейт аудио: lossless
Продолжительность: 0:20:59.27
Источник (релизер): Физический носитель (Собственный рип с оригинала)
Наличие сканов в содержимом раздачи: да
Доп. информация: Mastered By – Brian Hazard (Color Theory)
Треклист:
01. Sharks [3:46]
02. Sehr Gut [4:04]
03. Klopf Klopf Klopf [4:02]
04. Sharks (Das Mix) [4:37]
05. Morgenröte [4:29]
Код:
Exact Audio Copy V1.0 beta 3 from 29. August 2011
EAC extraction logfile from 5. June 2012, 19:22
Das Merman / Sharks
Used drive  : PLEXTOR BDDVDR PX-B320SA   Adapter: 3  ID: 1
Read mode               : Secure
Utilize accurate stream : Yes
Defeat audio cache      : Yes
Make use of C2 pointers : No
Read offset correction                      : 6
Overread into Lead-In and Lead-Out          : No
Fill up missing offset samples with silence : Yes
Delete leading and trailing silent blocks   : No
Null samples used in CRC calculations       : Yes
Used interface                              : Installed external ASPI interface
Used output format              : User Defined Encoder
Selected bitrate                : 128 kBit/s
Quality                         : High
Add ID3 tag                     : No
Command line compressor         : C:\Program Files (x86)\FLAC\flac.exe
Additional command line options : -V -8 -T "Date=%year%" -T "Genre=%genre%" %source%
TOC of the extracted CD
     Track |   Start  |  Length  | Start sector | End sector
    ---------------------------------------------------------
        1  |  0:00.00 |  3:46.72 |         0    |    17021
        2  |  3:46.72 |  4:03.60 |     17022    |    35306
        3  |  7:50.57 |  4:02.23 |     35307    |    53479
        4  | 11:53.05 |  4:37.26 |     53480    |    74280
        5  | 16:30.31 |  4:28.71 |     74281    |    94451
Range status and errors
Selected range
     Filename D:\Das Merman - Sharks (Ltd.)(2011)\Das Merman - Sharks.wav
     Peak level 98.9 %
     Extraction speed 2.8 X
     Range quality 100.0 %
     Test CRC 737B1409
     Copy CRC 737B1409
     Copy OK
No errors occurred
AccurateRip summary
Track  1  not present in database
Track  2  not present in database
Track  3  not present in database
Track  4  not present in database
Track  5  not present in database
None of the tracks are present in the AccurateRip database
End of status report
==== Log checksum DA777B099B9E5F057870C354FC061D8043273FDFA0FF5439BEE56DC5B27AFB58 ====
Правила, инструкции, FAQ!!!
Торрент  Добавлен [26 июн 2020, 17:18] Скачать торрент Магнет ссылка
Скачать торрент
[ Размер 12.18 КБ / Просмотров 11 ]

Статус
Проверен 
 
Размер  145.25 МБ
Приватный: Нет (DHT включён)
.torrent скачан  0
 


     Отправить личное сообщение
   
Страница 1 из 1
Показать сообщения за:  Поле сортировки  
Начать новую тему Ответить на тему


Сейчас этот форум просматривают: нет зарегистрированных пользователей и гости: 0


Вы не можете начинать темы
Вы не можете отвечать на сообщения
Вы не можете редактировать свои сообщения
Вы не можете удалять свои сообщения
Вы не можете добавлять вложения

Перейти:  
cron