Начать новую тему Ответить на тему
Статистика раздачи
Размер: 3.21 ГБ | Добавлен: 26 июн 2020, 19:51 | Скачали: 0
Сидеров: 0  [0 байт/сек]    Личеров: 0  [0 байт/сек]
Пред. тема | След. тема 

Автор
Сообщение

СообщениеДобавлено: 26 июн 2020, 19:51 

Ответить с цитатой 

Unit: 187 - Discography (5 CD + 2 Maxi-Single)



Жанр: Industrial, EBM, Electro
Страна: Canada
Год издания: 1996 - 2012
Издатель (лейбл): 21st Circuitry, COP International, Vendetta Music, Off Beat
Аудиокодек: FLAC (*.flac)
Тип рипа: image+.cue
Битрейт аудио: lossless
Продолжительность: 06:08:42

Лейбл: 21st Circuitry
Номер по каталогу: 21C.CD12
Страна-производитель диска: USA
Год выпуска диска: 1996
Дата выхода оригинального издания: 1996
Тип издания: CD, Album
Продолжительность: 00:55:06
Источник (релизер): Собственный рип
Наличие сканов в содержимом раздачи: да, PNG 600dpi

Треклист
01. F.O.A.D. [03:57]
02. Burn [04:30]
03. Waiting For Jesus [04:52]
04. Lardass [04:52]
05. Pointless [03:57]
06. Crackhead [05:12]
07. Shitlist [04:40]
08. Lifosuction [04:31]
09. Agnostic [04:44]
10. Debauch [09:26]
Bonus Track
11. Crackhead (Tensor-Vision Remix) [04:19]
Код:
Exact Audio Copy V0.99 prebeta 5 from 4. May 2009
Отчёт EAC об извлечении, выполненном 21. июля 2012, 19:57
Unit:187 / Unit:187
Дисковод: PIONEER BD-RW   BDR-206   Adapter: 1  ID: 1
Режим чтения                 : Достоверность
Использование точного потока : Да
Отключение кэша аудио        : Да
Использование указателей C2  : Нет
Коррекция смещения при чтении                     : 667
Способность читать области Lead-in и Lead-out     : Нет
Заполнение пропущенных сэмплов тишиной            : Да
Удаление блоков с тишиной в начале и конце        : Нет
При вычислениях CRC использовались нулевые сэмплы : Да
Интерфейс                                         : Встроенный Win32-интерфейс для Win NT/2000
Выходной формат          : Пользовательский кодировщик
Выбранный битрейт        : 1024 kBit/s
Качество                 : Высокий
Добавление ID3-тэга      : Нет
Утилита сжатия           : C:\Program Files (x86)\Exact Audio Copy\FLAC\FLAC.EXE
Дополнительные параметры : -8 -V -T "ARTIST=%a" -T "TITLE=%t" -T "ALBUM=%g" -T "DATE=%y" -T "TRACKNUMBER=%n" -T "GENRE=%m" -T "COMMENT=%e" %s -o %d
TOC извлечённого CD
     Трек |   Старт  | Длительность | Начальный сектор | Конечный сектор
    ---------------------------------------------------------------------
       1  |  0:00.00 |    3:57.72   |           0      |      17846
       2  |  3:57.72 |    4:30.22   |       17847      |      38118
       3  |  8:28.19 |    4:52.36   |       38119      |      60054
       4  | 13:20.55 |    4:52.66   |       60055      |      82020
       5  | 18:13.46 |    3:57.72   |       82021      |      99867
       6  | 22:11.43 |    5:12.71   |       99868      |     123338
       7  | 27:24.39 |    4:40.14   |      123339      |     144352
       8  | 32:04.53 |    4:31.42   |      144353      |     164719
       9  | 36:36.20 |    4:44.24   |      164720      |     186043
      10  | 41:20.44 |    9:26.64   |      186044      |     228557
      11  | 50:47.33 |    4:19.36   |      228558      |     248018
Характеристики диапазона извлечения и сообщения об ошибках
Выбранный диапазон
     Имя файла F:\Подготовка к раздаче!!!\Unit 187\Unit 187 - Студийная Дискография (1996-2012)\Album\1996 - Unit 187\Unit 187 - Unit 187.wav
     Пиковый уровень 100.0 %
     Качество диапазона 100.0 %
     CRC теста AAFEFEF1
     CRC копии AAFEFEF1
     Копирование... OK
Ошибок не произошло
AccurateRip: сводка
Трек  1  точное извлечение (доверие 6)  [0D903839]
Трек  2  точное извлечение (доверие 6)  [9F6A4C1B]
Трек  3  точное извлечение (доверие 6)  [0E8ECEE0]
Трек  4  точное извлечение (доверие 6)  [F119C203]
Трек  5  точное извлечение (доверие 6)  [002B9D73]
Трек  6  точное извлечение (доверие 6)  [50EFD3B4]
Трек  7  точное извлечение (доверие 6)  [D2E6619B]
Трек  8  точное извлечение (доверие 6)  [9F6ECBEC]
Трек  9  точное извлечение (доверие 6)  [E33CB388]
Трек 10  точное извлечение (доверие 6)  [2DDFC157]
Трек 11  точное извлечение (доверие 2)  [82B3F0D3]
Все треки извлечены точно
Конец отчёта
 
Код:
REM GENRE Industrial
REM DATE 1996
REM DISCID 900CEA0B
REM COMMENT "ExactAudioCopy v0.99pb5"
PERFORMER "Unit:187"
TITLE "Unit:187"
FILE "Unit 187 - Unit 187.flac" WAVE
  TRACK 01 AUDIO
    TITLE "F.O.A.D."
    PERFORMER "Unit:187"
    FLAGS DCP
    INDEX 01 00:00:00
  TRACK 02 AUDIO
    TITLE "Burn"
    PERFORMER "Unit:187"
    FLAGS DCP
    INDEX 01 03:57:72
  TRACK 03 AUDIO
    TITLE "Waiting for Jesus"
    PERFORMER "Unit:187"
    FLAGS DCP
    INDEX 01 08:28:19
  TRACK 04 AUDIO
    TITLE "Lardass"
    PERFORMER "Unit:187"
    FLAGS DCP
    INDEX 01 13:20:55
  TRACK 05 AUDIO
    TITLE "Pointless"
    PERFORMER "Unit:187"
    FLAGS DCP
    INDEX 01 18:13:46
  TRACK 06 AUDIO
    TITLE "Crackhead"
    PERFORMER "Unit:187"
    FLAGS DCP
    INDEX 01 22:11:43
  TRACK 07 AUDIO
    TITLE "Shitlist"
    PERFORMER "Unit:187"
    FLAGS DCP
    INDEX 01 27:24:39
  TRACK 08 AUDIO
    TITLE "Lifosuction"
    PERFORMER "Unit:187"
    FLAGS DCP
    INDEX 01 32:04:53
  TRACK 09 AUDIO
    TITLE "Agnostic"
    PERFORMER "Unit:187"
    FLAGS DCP
    INDEX 01 36:36:20
  TRACK 10 AUDIO
    TITLE "Debauch"
    PERFORMER "Unit:187"
    FLAGS DCP
    INDEX 01 41:20:44
  TRACK 11 AUDIO
    TITLE "Crackhead (Tensor-vision remix)"
    PERFORMER "Unit:187"
    FLAGS DCP
    INDEX 01 50:47:33
 
Код:
AUDIOCHECKER v2.0 beta (build 457) - by Dester - opdester@freemail.hu
~~~~~~~~~~~~~~~~~~~~~~~~~~~~~~~~~~
-=== DO NOT EDIT THIS FILE! ===-
Path: ...\1996 - Unit 187
1 -=- Unit 187 - Unit 187.flac -=- MPEG (95%)
157447460
 
Канада все еще производит на свет индустриальные группы, и появление Unit 187 доказывает этот факт. Находясь где-то между Sielwolf и Die Krupps, Unit 187 развивают дальше стиль
электронной музыки, которая нагружена тяжелыми гитарными рифами, сэмплами, и брутальным вокалом. Они не отклоняются в неисследованные территории, но вместо этого вплетают стили
различных других музыкантов, формируя электронную стену из звукового безумия. Несколько треков (Waiting For Jesus, Lardass, и Shitlist) даже идут настолько далеко, что включают в
микс немного техно. Перегруженный страхом вокал местами по детски убогий, но сама музыка возмещает это вдвойне. Десятый трек, Debauch, немного успокаивает слушателя перед тем, как
дополнительный ремикс группы Tensor трека Crackhead снова взводит его перед окончанием альбома.
Источник: http://www.industrialreviews.ru
#777

Лейбл: 21st Circuitry
Номер по каталогу: 21C.CD25
Страна-производитель диска: USA
Год выпуска диска: 1997
Дата выхода оригинального издания: 1997
Тип издания: CD, Album
Продолжительность: 01:04:48
Источник (релизер): Собственный рип
Наличие сканов в содержимом раздачи: да, PNG 600dpi
Треклист
01. Loaded [06:37]
02. Dick [05:19]
03. Dead Dogs [05:04]
04. Nobody [05:00]
05. Traces [06:02]
06. Shape Shifter [04:47]
07. Rat Trap [04:51]
08. Planet Claire [03:00]
09. Stillborn [06:16]
10. Dead Dogs (Doggy Style Mix) [06:29]
11. Loaded (Shockf**kee Mix) [04:36]
12. Stillborn (Second Coming Mix) [06:43]
Код:
Exact Audio Copy V0.99 prebeta 5 from 4. May 2009
Отчёт EAC об извлечении, выполненном 1. мая 2011, 14:19
Unit:187 / Loaded
Дисковод: PIONEER DVD-RW  DVR-212   Adapter: 3  ID: 1
Режим чтения                 : Достоверность
Использование точного потока : Да
Отключение кэша аудио        : Да
Использование указателей C2  : Нет
Коррекция смещения при чтении                     : 48
Способность читать области Lead-in и Lead-out     : Нет
Заполнение пропущенных сэмплов тишиной            : Да
Удаление блоков с тишиной в начале и конце        : Нет
При вычислениях CRC использовались нулевые сэмплы : Да
Интерфейс                                         : Встроенный Win32-интерфейс для Win NT/2000
Выходной формат          : Пользовательский кодировщик
Выбранный битрейт        : 1024 kBit/s
Качество                 : Высокий
Добавление ID3-тэга      : Нет
Утилита сжатия           : C:\Program Files (x86)\Exact Audio Copy\FLAC\FLAC.EXE
Дополнительные параметры : -8 -V %s
TOC извлечённого CD
     Трек |   Старт  | Длительность | Начальный сектор | Конечный сектор
    ---------------------------------------------------------------------
       1  |  0:00.00 |    6:36.22   |           0      |      29721
       2  |  6:36.22 |    5:19.73   |       29722      |      53719
       3  | 11:56.20 |    5:04.65   |       53720      |      76584
       4  | 17:01.10 |    4:55.10   |       76585      |      98719
       5  | 21:56.20 |    6:02.67   |       98720      |     125936
       6  | 27:59.12 |    4:47.13   |      125937      |     147474
       7  | 32:46.25 |    4:51.57   |      147475      |     169356
       8  | 37:38.07 |    3:04.15   |      169357      |     183171
       9  | 40:42.22 |    6:16.45   |      183172      |     211416
      10  | 46:58.67 |    6:29.45   |      211417      |     240636
      11  | 53:28.37 |    4:36.18   |      240637      |     261354
      12  | 58:04.55 |    6:44.12   |      261355      |     291666
Характеристики диапазона извлечения и сообщения об ошибках
Выбранный диапазон
     Имя файла D:\РАЗДАЧИ!!!!\Unit187 - Loaded - 1997\Unit 187 - Loaded.wav
     Пиковый уровень 100.0 %
     Качество диапазона 100.0 %
     CRC теста 6FF46053
     CRC копии 6FF46053
     Копирование... OK
Ошибок не произошло
AccurateRip: сводка
Трек  1  точное извлечение (доверие 4)  [510A67C5]
Трек  2  точное извлечение (доверие 4)  [DC25D3FE]
Трек  3  точное извлечение (доверие 4)  [9AFA4AB1]
Трек  4  точное извлечение (доверие 4)  [AC96ECB5]
Трек  5  точное извлечение (доверие 4)  [82040176]
Трек  6  точное извлечение (доверие 4)  [B83A6005]
Трек  7  точное извлечение (доверие 4)  [6DF621EF]
Трек  8  точное извлечение (доверие 4)  [3EA55080]
Трек  9  точное извлечение (доверие 4)  [29A189C6]
Трек 10  точное извлечение (доверие 4)  [837E7463]
Трек 11  точное извлечение (доверие 4)  [E2D46605]
Трек 12  точное извлечение (доверие 4)  [1DB826CC]
Все треки извлечены точно
Конец отчёта
 
Код:
 REM GENRE Industrial
REM DATE 1997
REM DISCID A00F300C
REM COMMENT "ExactAudioCopy v0.99pb5"
PERFORMER "Unit:187"
TITLE "Loaded"
FILE "Unit 187 - Loaded.flac" WAVE
  TRACK 01 AUDIO
    TITLE "Loaded"
    PERFORMER "Unit:187"
    INDEX 01 00:00:00
  TRACK 02 AUDIO
    TITLE "Dick"
    PERFORMER "Unit:187"
    INDEX 01 06:36:22
  TRACK 03 AUDIO
    TITLE "Dead Dogs"
    PERFORMER "Unit:187"
    INDEX 01 11:56:20
  TRACK 04 AUDIO
    TITLE "Nobody"
    PERFORMER "Unit:187"
    INDEX 01 17:01:10
  TRACK 05 AUDIO
    TITLE "Traces"
    PERFORMER "Unit:187"
    INDEX 01 21:56:20
  TRACK 06 AUDIO
    TITLE "Shape Shifter"
    PERFORMER "Unit:187"
    INDEX 01 27:59:12
  TRACK 07 AUDIO
    TITLE "Rat Trap"
    PERFORMER "Unit:187"
    INDEX 01 32:46:25
  TRACK 08 AUDIO
    TITLE "Planet claire"
    PERFORMER "Unit:187"
    INDEX 01 37:38:07
  TRACK 09 AUDIO
    TITLE "Stillborn"
    PERFORMER "Unit:187"
    INDEX 01 40:42:22
  TRACK 10 AUDIO
    TITLE "Dead Dogs (Doggy Style Mix By Tensor)"
    PERFORMER "Unit:187"
    INDEX 01 46:58:67
  TRACK 11 AUDIO
    TITLE "Loaded (Shockfuckee Mix By 16 Volt)"
    PERFORMER "Unit:187"
    INDEX 01 53:28:37
  TRACK 12 AUDIO
    TITLE "Stillborn (Second Coming Mix By Rhys Fulber)"
    PERFORMER "Unit:187"
    INDEX 01 58:04:55
 
Код:
AUDIOCHECKER v2.0 beta (build 457) - by Dester - opdester@freemail.hu
~~~~~~~~~~~~~~~~~~~~~~~~~~~~~~~~~~
-=== DO NOT EDIT THIS FILE! ===-
Path: ...\Unit187 - Loaded - 1997
1 -=- Unit 187 - Loaded.flac -=- CDDA (100%)
56998308
Неужели это тот же Unit 187, что выпустил дебютный альбом на 21st Circuitry в прошлом году? На "Loaded" Unit 187, похоже, развились музыкально, создав жесткий диск, полный энергии
и агрессии. Не только музыка гораздо лучше, но Unit 187 также постарались пригласить нескольких маститых музыкантов для создания "Loaded". Во-первых, Jed Simon, который играл на
гитаре для FLA, теперь основной участник проекта Unit 187, став его гитаристом. Также появляется Rhys Fulber, сделавший ремикс Stillborn. Дружественные канадцы Tensor ремикшируют
Dead Dogs и, наконец, 16 Volt доводят заглавный трек до уровня своего собственного мощного стиля rock-electro. Здесь не один примечательный момент, а целых несколько. Вокал Tod'а
грубый и убедительный, программинг John'а напряженный, и гитарная работа Jed'а подбадривает. Nobody - это резкое произведение с гремящим ритмом, яростным вокалом и вибрирующими
секвенциями. Инструментальная композиция Traces использует бит в стиле hip-hop и богатый программинг. Shape Shifter включает менее агрессивный вокал, приглушенную гитарную работу,
пространственные секвенции, и сэмплы из Happy Gilmore и Aliens. Классический трек B-52, Planet Claire, огрублен гитарной работой в стиле heavy metal, гремящим ритмом, и
скрежещущим вокалом. Эта кавер-версия становится классикой сама по себе. Оригинальная версия Stillborn сильно подчинена своему биту и пискливой электронике, в то время как
гитарная работа только усиливает общее звучание. Удивительно, что ремикс Rhys'а не выводит гитару на передний план произведения, и даже добавляет несколько действительно
изобретательных техно звуков. Ремикс Tensor'а Doggy Style Mix трека Dead Dogs - это прямолинейное техно, которое мечется между intelligent и ambient. Loaded уже звучит немного
похоже на 16 Volt, поэтому естественно, что они сделали ремикс этой песни. На их Shockfuckee Mix, Eric и компания приглушили оригинал, отбросив многие жесткие качества и
трансформировав его в произведение, которое базируется на вокале и бите. "Loaded" - это очень мощный релиз, который объединяет многие музыкальные элементы в одно целое, что делает
его одним из лучших альбомов 1997 года.
Источник: http://www.industrialreviews.ru
#777
Лейбл: COP International
Номер по каталогу: COP CD071
Страна-производитель диска: USA
Год выпуска диска: 2003
Дата выхода оригинального издания: 2003
Тип издания: CD, Album
Продолжительность: 00:49:57
Источник (релизер): Собственный рип
Наличие сканов в содержимом раздачи: да, PNG 600dpi

Треклист
01. Capital Punishment [05:05]
02. Lust Poison #9 [05:11]
03. Anger Management (Part 1) [04:23]
04. Angels [05:16]
05. Second Class Citizen [05:19]
06. Anger Management (Part 2) [06:30]
07. Infested [07:34]
08. Euphoria [06:30]
09. Second Class Citizen (Decreemix) [04:05]
Код:
Exact Audio Copy V0.99 prebeta 4 from 23. January 2008
Отчёт EAC об извлечении, выполненном 20. июня 2009, 18:25
Unit:187 / Capital Punishment
Дисковод: PIONEER DVD-RW  DVR-215   Adapter: 4  ID: 0
Режим чтения                 : Достоверность
Использование точного потока : Да
Отключение кэша аудио        : Да
Использование указателей C2  : Нет
Коррекция смещения при чтении                     : 48
Способность читать области Lead-in и Lead-out     : Нет
Заполнение пропущенных сэмплов тишиной            : Да
Удаление блоков с тишиной в начале и конце        : Нет
При вычислениях CRC использовались нулевые сэмплы : Да
Интерфейс                                         : Встроенный Win32-интерфейс для Win NT/2000
Выходной формат          : Пользовательский кодировщик
Выбранный битрейт        : 1024 kBit/s
Качество                 : Высокий
Добавление ID3-тэга      : Нет
Утилита сжатия           : C:\Program Files\Exact Audio Copy\FLAC\FLAC.EXE
Дополнительные параметры : -8 -V -T "ARTIST=%a" -T "TITLE=%t" -T "ALBUM=%g" -T "DATE=%y" -T "TRACKNUMBER=%n" -T "GENRE=%m" -T "COMMENT=%e" %s -o %d
TOC извлечённого CD
     Трек |   Старт  | Длительность | Начальный сектор | Конечный сектор
    ---------------------------------------------------------------------
       1  |  0:00.00 |    5:05.66   |           0      |      22940
       2  |  5:05.66 |    5:11.30   |       22941      |      46295
       3  | 10:17.21 |    4:22.74   |       46296      |      66019
       4  | 14:40.20 |    5:16.15   |       66020      |      89734
       5  | 19:56.35 |    5:19.69   |       89735      |     113728
       6  | 25:16.29 |    6:30.42   |      113729      |     143020
       7  | 31:46.71 |    7:34.50   |      143021      |     177120
       8  | 39:21.46 |    6:30.27   |      177121      |     206397
       9  | 45:51.73 |    4:05.17   |      206398      |     224789
Характеристики диапазона извлечения и сообщения об ошибках
Выбранный диапазон
     Имя файла G:\РАЗДАЧИ!!!! (rutracker.org)\Unit187\Unit 187 - Capital Punishment.wav
     Пиковый уровень 100.0 %
     Качество диапазона 99.9 %
     CRC теста E4F1B9F8
     CRC копии E4F1B9F8
     Копирование... OK
Ошибок не произошло
AccurateRip: сводка
Трек  1  точное извлечение (доверие 3)  [C47CE7FE]
Трек  2  точное извлечение (доверие 3)  [39181D97]
Трек  3  точное извлечение (доверие 3)  [81F5198B]
Трек  4  точное извлечение (доверие 3)  [2335353D]
Трек  5  точное извлечение (доверие 3)  [9D6A397C]
Трек  6  точное извлечение (доверие 3)  [073DDED4]
Трек  7  точное извлечение (доверие 3)  [C07473F1]
Трек  8  точное извлечение (доверие 3)  [F87F0F62]
Трек  9  точное извлечение (доверие 3)  [35492F5F]
Все треки извлечены точно
Конец отчёта
Код:
 REM GENRE Electronic
REM DATE 2003
REM DISCID 810BB509
REM COMMENT "ExactAudioCopy v0.99pb4"
PERFORMER "Unit:187"
TITLE "Capital Punishment"
FILE "Unit 187 - Capital Punishment.flac" WAVE
  TRACK 01 AUDIO
    TITLE "Capital Punishment"
    PERFORMER "Unit:187"
    INDEX 01 00:00:00
  TRACK 02 AUDIO
    TITLE "Lust Poison #9"
    PERFORMER "Unit:187"
    INDEX 01 05:05:66
  TRACK 03 AUDIO
    TITLE "Anger Management (part 1)"
    PERFORMER "Unit:187"
    INDEX 01 10:17:21
  TRACK 04 AUDIO
    TITLE "Angels"
    PERFORMER "Unit:187"
    INDEX 01 14:40:20
  TRACK 05 AUDIO
    TITLE "Second Class Citizen"
    PERFORMER "Unit:187"
    INDEX 01 19:56:35
  TRACK 06 AUDIO
    TITLE "Ange Management (part2)"
    PERFORMER "Unit:187"
    INDEX 01 25:16:29
  TRACK 07 AUDIO
    TITLE "Infested"
    PERFORMER "Unit:187"
    INDEX 01 31:46:71
  TRACK 08 AUDIO
    TITLE "Euphoria"
    PERFORMER "Unit:187"
    INDEX 01 39:21:46
  TRACK 09 AUDIO
    TITLE "Second Class Citizen (Decreemix)"
    PERFORMER "Unit:187"
    INDEX 01 45:51:73
 
Код:
AUDIOCHECKER v2.0 beta (build 457) - by Dester - opdester@freemail.hu
~~~~~~~~~~~~~~~~~~~~~~~~~~~~~~~~~~
-=== DO NOT EDIT THIS FILE! ===-
Path: ...\Unit187 - Capital Punishment
1 -=- Unit 187 - Capital Punishment.flac -=- CDDA (100%)
245770964
Мне уже давно хотелось назвать предыдущий и текущий года эпохой оживших мертвецов, и описываемый релиз только утверждает меня в этом желании. Unit 187 как-то незаметно
выскользнули из поля моего вооруженного очками зрения, и я, в общем-то, мысленно поставил жирный красный крест на этом коллективе, и не без грусти - альбом 1997 года, снабженный
названием "Loaded", казался многообещающим началом череды все более насыщенных дисков. Между тем, дуэт (состоящий из Tod Law и John Morgan) все же вел какую-то вялую деятельность,
и даже стал записывать новый материал в 2001-м году. Альбом "Capital Punishment" наконец был издан на лейбле COP International в феврале 2003 года, внезапно ворвавшись в мою жизнь
светлым пятном на фоне всеобщего падения в пропасть future-pop, power-noise и еще черт знает куда. (Кстати сказать, он столь же неожиданно ворвался и в недалекие от первых строчки
альтернативных чартов, где продержался более нескольких секунд). Этот диск не блещет запоминающимися мелодиями, он не содержит головокружительных синтезаторных пассажей и не
подходит для танцевальных вечеринок. Между тем, он приносит немало удовольствия и напрашивается на повторное прослушивание, по всей видимости, из-за заметной недостачи подобной
музыки в последнее время, точнее говоря - хорошей подобной музыки в стиле electro/ebm. Утерев остаточные сопли после очередной синтопопной размазни и очнувшись от ступорного
беспричинного транса, так приятно снова окунуться в атмосферу жестокости и насилия! С одной стороны, альбом полон ярости, злости, немного агонии и чуть бешенства, но дело не
только в агрессии. Все говорит о том, что в процессе затянувшейся работы над композициями (в которой принимал живейшее участие Chris Peterson) музыкантам удалось довести их до
очень приличного состояния. Не могу назвать его идеальным, однако чувствуется продуманность саунда, радует отсутствие раздражающей прямолинейности, доставляет удовольствие
профессиональный программинг, хороши к месту втрамбованные сэмплы из фильмов, искажения вокала принимают хоть немного разные формы - все это выделяет "Capital Punishment" из общей
серой массы. В общем, не шедевр, но очень смачный альбом, который, думаю порадует не одного и даже не двух поклонников мрачноватой жестковатой музыки ebm.
Источник: http://www.industrialreviews.ru
#777

Лейбл: Vendetta Music
Номер по каталогу: VM0035
Страна-производитель диска: USA
Год выпуска диска: 2010
Дата выхода оригинального издания: 2010
Тип издания: CD, Album
Продолжительность: 00:48:40
Источник (релизер): Собственный рип
Наличие сканов в содержимом раздачи: да, PNG 600dpi

Треклист
01. Sick Obsession [05:37]
02. Rolling Vengeance [04:31]
03. Threatened [04:14]
04. Living To Die [05:16]
05. Guilty Pleasures [03:15]
06. DDD [04:35]
07. Lethal Injection [05:22]
08. Kurva [04:21]
09. The Wait [03:58]
10. Sofadermatosis [06:31]
Код:
 Exact Audio Copy V0.99 prebeta 5 from 4. May 2009
Отчёт EAC об извлечении, выполненном 19. июля 2011, 23:06
Unit 187 / Out for Blood
Дисковод: ASUS    DRW-22B2ST   Adapter: 2  ID: 0
Режим чтения                 : Достоверность
Использование точного потока : Да
Отключение кэша аудио        : Да
Использование указателей C2  : Нет
Коррекция смещения при чтении                     : 6
Способность читать области Lead-in и Lead-out     : Нет
Заполнение пропущенных сэмплов тишиной            : Да
Удаление блоков с тишиной в начале и конце        : Нет
При вычислениях CRC использовались нулевые сэмплы : Да
Интерфейс                                         : Встроенный Win32-интерфейс для Win NT/2000
Выходной формат          : Пользовательский кодировщик
Выбранный битрейт        : 1024 kBit/s
Качество                 : Высокий
Добавление ID3-тэга      : Нет
Утилита сжатия           : C:\Program Files (x86)\Exact Audio Copy\FLAC\FLAC.EXE
Дополнительные параметры : -8 -V -T "ARTIST=%a" -T "TITLE=%t" -T "ALBUM=%g" -T "DATE=%y" -T "TRACKNUMBER=%n" -T "GENRE=%m" -T "COMMENT=%e" %s -o %d
TOC извлечённого CD
     Трек |   Старт  | Длительность | Начальный сектор | Конечный сектор
    ---------------------------------------------------------------------
       1  |  0:00.00 |    5:36.48   |           0      |      25247
       2  |  5:36.48 |    4:31.11   |       25248      |      45583
       3  | 10:07.59 |    5:14.37   |       45584      |      69170
       4  | 15:22.21 |    5:16.25   |       69171      |      92895
       5  | 20:38.46 |    3:14.52   |       92896      |     107497
       6  | 23:53.23 |    4:34.47   |      107498      |     128094
       7  | 28:27.70 |    5:22.24   |      128095      |     152268
       8  | 33:50.19 |    4:20.48   |      152269      |     171816
       9  | 38:10.67 |    3:58.00   |      171817      |     189666
      10  | 42:08.67 |    6:31.22   |      189667      |     219013
Характеристики диапазона извлечения и сообщения об ошибках
Выбранный диапазон
     Имя файла D:\РАЗДАЧИ!!!!\Unit187 – Out For Blood - 2010\Unit 187 - Out for Blood.wav
     Пиковый уровень 98.7 %
     Качество диапазона 99.9 %
     CRC теста 255A6C91
     CRC копии 255A6C91
     Копирование... OK
Ошибок не произошло
AccurateRip: сводка
Трек  1  точность не определена (достоверность 1)  [D10B3067], AccurateRip вернул [55ED22B4]
Трек  2  точность не определена (достоверность 1)  [C6B5D359], AccurateRip вернул [8846917A]
Трек  3  точность не определена (достоверность 1)  [F5547D1E], AccurateRip вернул [255C2B34]
Трек  4  точность не определена (достоверность 1)  [DE243043], AccurateRip вернул [9309E4A2]
Трек  5  точность не определена (достоверность 1)  [1AD1A444], AccurateRip вернул [D1BE7D41]
Трек  6  точность не определена (достоверность 1)  [E096D767], AccurateRip вернул [BB78E750]
Трек  7  точность не определена (достоверность 1)  [545CB34A], AccurateRip вернул [5BB47073]
Трек  8  точность не определена (достоверность 1)  [1AEEEDF3], AccurateRip вернул [2553AF7E]
Трек  9  точность не определена (достоверность 1)  [D6847A71], AccurateRip вернул [65880267]
Трек 10  точность не определена (достоверность 1)  [C2FA18D8], AccurateRip вернул [135919BC]
Ни один трек не прошёл проверки на точность
В вашей базе может быть иной вариант штамповки диска
Конец отчёта
Код:
 REM DATE 2010
REM DISCID 730B680A
REM COMMENT "ExactAudioCopy v0.99pb5"
PERFORMER "Unit 187"
TITLE "Out for Blood"
FILE "Unit 187 - Out for Blood.flac" WAVE
  TRACK 01 AUDIO
    TITLE "Sick Obsession"
    PERFORMER "Unit 187"
    INDEX 01 00:00:00
  TRACK 02 AUDIO
    TITLE "Rolling Vengeance"
    PERFORMER "Unit 187"
    INDEX 01 05:36:48
  TRACK 03 AUDIO
    TITLE "Threatened"
    PERFORMER "Unit 187"
    INDEX 01 10:07:59
  TRACK 04 AUDIO
    TITLE "Living to Die"
    PERFORMER "Unit 187"
    INDEX 00 15:19:34
    INDEX 01 15:22:21
  TRACK 05 AUDIO
    TITLE "Guilty Pleasures"
    PERFORMER "Unit 187"
    INDEX 00 20:36:39
    INDEX 01 20:38:46
  TRACK 06 AUDIO
    TITLE "God"
    PERFORMER "Unit 187"
    INDEX 00 23:51:22
    INDEX 01 23:53:23
  TRACK 07 AUDIO
    TITLE "Lethal Injection"
    PERFORMER "Unit 187"
    INDEX 01 28:27:70
  TRACK 08 AUDIO
    TITLE "Kurva"
    PERFORMER "Unit 187"
    INDEX 00 33:47:24
    INDEX 01 33:50:19
  TRACK 09 AUDIO
    TITLE "The Wait"
    PERFORMER "Unit 187"
    INDEX 01 38:10:67
  TRACK 10 AUDIO
    TITLE "Sofadermatosis"
    PERFORMER "Unit 187"
    INDEX 00 42:05:06
    INDEX 01 42:08:67
 
Код:
AUDIOCHECKER v2.0 beta (build 457) - by Dester - opdester@freemail.hu
~~~~~~~~~~~~~~~~~~~~~~~~~~~~~~~~~~
-=== DO NOT EDIT THIS FILE! ===-
Path: ...\Unit187 – Out For Blood - 2010
1 -=- Unit 187 - Out for Blood.flac -=- CDDA (100%)
78118324
 
Четвертый студийный альбом канадской метал-индустриальной формации UNIT:187 получился сродни атомной бомбе, сброшенной на головы сонных предгриппозных слушателей. Мощные и зубастые, крутые и агрессивные гитарные рифы и звучные
коррозийные громыхания, четкая, тягучая и тяжело припечатывающая к земле раскачивающаяся ритм-секция, отборные нойз-эффекты и смачный индустриальный лязг синтезаторного железа, а поверх всего этого кайфового и мрачного сурового
драйва располагаются неистовые, разборчиво рычащие или зловеще ползучие мужские вокалы, иногда обработанные в характерном ванкуверском киборг-стиле или приправленные разговорными сэмплами. Во многих композициях на новом альбоме
UNIT:187 можно без труда уловить схожие черты с последним альбомом FRONT LINE ASSEMBLY (вокалы, ритмика, эффекты, грувы, эмбиент, гитары и мелодии), а также записями MINISTRY, DECREE, FEAR FACTORY, LE DIKTAT и MINDLESS FAITH.
Успевающий повсюду Chris Peterson тут явно не просто так отбывал время, его влияние на звучание группы чувствуется как никогда. По меркам метал-индустриального стиля альбом "Out Of Blood" получился очень цельным, качовым,
разноплановым и хитовым. Музыка идеально подойдет для занятий в качзале и прогулок по промозглым индустриальным или враждебным спальным районам. У нее есть свойство намертво приклеиваться к ушам и образовывать со слушателем
единое целое боевое оружие. Работа со звуком была проведена музыкантами отменная - слышен каждый вздох и стон тяжелого металла, каждый заусенец и нерв острой гитарной фрезы, каждый новый оригинальный вокальный ход, каждое
проникновение в дарк эмбиентном измерении, каждое вдавливание в грудь и погибельный гнет ритмической поступи. Структурно композиции также выглядят идеально и суперпрочно. В них нет ничего лишнего, но в то же время сколько в них
атмосферности, экспрессии, особого гипнотизма и металлической грации, какой накал страстей и какая уверенная индустриальная ритмика, какая выверенность обогащенного ураном саунда. Я считаю, что возвращение ветеранов UNIT:187 на
сцену произошло более чем эффектно и громко. Песни "Rolling Vengance" (!), "Threatened", "Living To Die", "DDD" и "Lethal Injection" (!) сразили меня наповал, а нойз-индустриальный инструментальный номер "Guilty Pleasures"
потоптался сверху и утрамбовал все, что от меня осталось. Наконец, самый продолжительный по времени, мелодичный и величественный финальный номер "Sofadermatosis" привлек стаю воронов, дикое зверье и сталкеров и прозвучал как
массивная метал-индустриальная ода фанату UNIT:187. Альбом "'Out for Blood" с большой долей вероятности войдет в число лучших релизов 2010 года по версии портала Машинист. Заслуженно, потому что кратко описать услышанное на
диске группы можно только словом "Супер!". [9 баллов]
Источник: http://www.machinistmusic.net
#777Лейбл: Vendetta Music
Номер по каталогу: VM0048
Страна-производитель диска: USA
Год выпуска диска: 2012
Дата выхода оригинального издания: 2012
Тип издания: CD, Album
Продолжительность: 01:08:48
Источник (релизер): Собственный рип
Наличие сканов в содержимом раздачи: да, PNG 600dpi
Треклист
01. Rolling Vengeance (Remixed By Hiwatt Marshall & cEvin Key) [05:35]
02. Threatened (Rom Diprisco Remix) [03:29]
03. Sick Obsession (Stiff Valentine Remix) [04:23]
04. Blood For Blood [04:20]
05. Threatened (Knifed Remix By Jared Slingerland & Craig Johnsen) [03:41]
06. Living To Die (Necrotek Remix) [05:40]
07. DDD (iVardensphere Remix) [06:47]
08. Rolling Vengeance (C((o))de Blue Remix) [05:41]
09. Kurva (16 Volt Remix) [04:17]
10. Rolling Vengeance (Deathproof Remix) [04:13]
11. DDD (Witchmaker Remix) [05:37]
12. Threatened (End Threat) (Glitch Mode Mix By Cyanotic) [05:04]
13. Rolling Vengeance (Mindless Faith Remix) [05:18]
14. Threatened (Mono-Amine's Poppy Remix) [04:43]
Код:
Exact Audio Copy V0.99 prebeta 5 from 4. May 2009
Отчёт EAC об извлечении, выполненном 9. июня 2012, 18:07
Unit:187  / Transfusion
Дисковод: PIONEER BD-RW   BDR-206   Adapter: 1  ID: 1
Режим чтения                 : Достоверность
Использование точного потока : Да
Отключение кэша аудио        : Да
Использование указателей C2  : Нет
Коррекция смещения при чтении                     : 667
Способность читать области Lead-in и Lead-out     : Нет
Заполнение пропущенных сэмплов тишиной            : Да
Удаление блоков с тишиной в начале и конце        : Нет
При вычислениях CRC использовались нулевые сэмплы : Да
Интерфейс                                         : Встроенный Win32-интерфейс для Win NT/2000
Выходной формат          : Пользовательский кодировщик
Выбранный битрейт        : 1024 kBit/s
Качество                 : Высокий
Добавление ID3-тэга      : Нет
Утилита сжатия           : C:\Program Files (x86)\Exact Audio Copy\FLAC\FLAC.EXE
Дополнительные параметры : -8 -V -T "ARTIST=%a" -T "TITLE=%t" -T "ALBUM=%g" -T "DATE=%y" -T "TRACKNUMBER=%n" -T "GENRE=%m" -T "COMMENT=%e" %s -o %d
TOC извлечённого CD
     Трек |   Старт  | Длительность | Начальный сектор | Конечный сектор
    ---------------------------------------------------------------------
       1  |  0:00.00 |    5:34.40   |           0      |      25089
       2  |  5:34.40 |    3:29.37   |       25090      |      40801
       3  |  9:04.02 |    4:22.41   |       40802      |      60492
       4  | 13:26.43 |    4:19.51   |       60493      |      79968
       5  | 17:46.19 |    3:41.12   |       79969      |      96555
       6  | 21:27.31 |    5:40.24   |       96556      |     122079
       7  | 27:07.55 |    6:47.09   |      122080      |     152613
       8  | 33:54.64 |    5:41.19   |      152614      |     178207
       9  | 39:36.08 |    4:17.06   |      178208      |     197488
      10  | 43:53.14 |    4:12.55   |      197489      |     216443
      11  | 48:05.69 |    5:37.20   |      216444      |     241738
      12  | 53:43.14 |    5:03.72   |      241739      |     264535
      13  | 58:47.11 |    5:18.04   |      264536      |     288389
      14  | 64:05.15 |    4:42.63   |      288390      |     309602
Характеристики диапазона извлечения и сообщения об ошибках
Выбранный диапазон
     Имя файла D:\РАЗДАЧИ!!!!\Unit 187 - Transfusion - 2012\Unit 187  - Transfusion.wav
     Пиковый уровень 100.0 %
     Качество диапазона 100.0 %
     CRC теста 51FA287C
     CRC копии 51FA287C
     Копирование... OK
Ошибок не произошло
AccurateRip: сводка
Трек  1  нет в базе данных
Трек  2  нет в базе данных
Трек  3  нет в базе данных
Трек  4  нет в базе данных
Трек  5  нет в базе данных
Трек  6  нет в базе данных
Трек  7  нет в базе данных
Трек  8  нет в базе данных
Трек  9  нет в базе данных
Трек 10  нет в базе данных
Трек 11  нет в базе данных
Трек 12  нет в базе данных
Трек 13  нет в базе данных
Трек 14  нет в базе данных
Ни одного трека нет в базе AccurateRip
Конец отчёта
 
Код:
REM GENRE Industrial
REM DATE 2012
REM DISCID DF10200E
REM COMMENT "ExactAudioCopy v0.99pb5"
PERFORMER "Unit:187 "
TITLE "Transfusion "
FILE "Unit 187  - Transfusion.flac" WAVE
  TRACK 01 AUDIO
    TITLE "Rolling Vengeance (Remixed By Hiwatt Marshall & cEvin Key) "
    PERFORMER "Unit:187 "
    INDEX 01 00:00:00
  TRACK 02 AUDIO
    TITLE "Threatened (Rom Diprisco Remix) "
    PERFORMER "Unit:187 "
    INDEX 01 05:34:40
  TRACK 03 AUDIO
    TITLE "Sick Obsession (Stiff Valentine Remix) "
    PERFORMER "Unit:187 "
    INDEX 01 09:04:02
  TRACK 04 AUDIO
    TITLE "Blood For Blood "
    PERFORMER "Unit:187 "
    INDEX 01 13:26:43
  TRACK 05 AUDIO
    TITLE "Threatened (Knifed Remix By Jared Slingerland & Craig Johnsen) "
    PERFORMER "Unit:187 "
    INDEX 01 17:46:19
  TRACK 06 AUDIO
    TITLE "Living To Die (Necrotek Remix) "
    PERFORMER "Unit:187 "
    INDEX 01 21:27:31
  TRACK 07 AUDIO
    TITLE "DDD (iVardensphere Remix) "
    PERFORMER "Unit:187 "
    INDEX 01 27:07:55
  TRACK 08 AUDIO
    TITLE "Rolling Vengeance (C((o))de Blue Remix) "
    PERFORMER "Unit:187 "
    INDEX 01 33:54:64
  TRACK 09 AUDIO
    TITLE "Kurva (16 Volt Remix) "
    PERFORMER "Unit:187 "
    INDEX 01 39:36:08
  TRACK 10 AUDIO
    TITLE "Rolling Vengeance (Deathproof Remix) "
    PERFORMER "Unit:187 "
    INDEX 01 43:53:14
  TRACK 11 AUDIO
    TITLE "  DDD (Witchmaker Remix) "
    PERFORMER "Unit:187 "
    INDEX 01 48:05:69
  TRACK 12 AUDIO
    TITLE "Threatened (End Threat) (Glitch Mode Mix By Cyanotic) "
    PERFORMER "Unit:187 "
    INDEX 01 53:43:14
  TRACK 13 AUDIO
    TITLE "Rolling Vengeance (Mindless Faith Remix) "
    PERFORMER "Unit:187 "
    INDEX 01 58:47:11
  TRACK 14 AUDIO
    TITLE "Threatened (Mono-Amine's Poppy Remix) "
    PERFORMER "Unit:187 "
    INDEX 01 64:05:15
Код:
AUDIOCHECKER v2.0 beta (build 457) - by Dester - opdester@freemail.hu
~~~~~~~~~~~~~~~~~~~~~~~~~~~~~~~~~~
-=== DO NOT EDIT THIS FILE! ===-
Path: ...\Unit 187 - Transfusion - 2012
1 -=- Unit 187  - Transfusion.flac -=- CDDA (100%)
107012212
Ремиксовый альбом UNIT:187 должен расширить и продлить удовольствие поклонников группы после выхода ее качового и драйвового опуса "Out Of Blood" двухгодичной давности. По крайней мере, необходимые ингредиенты для такого
расклада в наличие на "Transfusion" имеются. В первую очередь это удачный выбор групп, которые исповедуют близкое по духу к канадцам звучание или ясно понимали, чего от них хотят коллеги по цеху и издающий лейбл. Во-вторых, это
ставка в ремиксах не на глубокую металлизацию, а на еще большую индустриализацию (электрификацию) оригинального метал-индустриального звучания UNIT:187. В-третьих, релиз включает эксклюзивную песню "Blood For Blood". Ставка в
подавляющем большинстве треков сработала и обеспечила должное разнообразие - в одних случаях мы получили жесткие клубноориентированные вещи (Rom DiPrisco), в других - мрачные, массивные и яростные метал-индустриальные боевики,
нашпигованные электротротилом с сохранением гитарных дж-дж-дж-рифов (MINDLESS FAITH, HiWatt Marshall & Cevin Key, STIFF VALENTINE, 16VOLT, DEATHPROOF, WITCHMAKER, MONO-AMINE). Также не обошлось без вездесущего дабстепа (благо, в
ремиксах J. Slingerland & C. Johnsen и C((O))de Blue он используется в умеренных дозах), суровой атмосферной вещицы с хоррор-саспенсом (NECROTEK), раскачивающейся трибально-индустриальной темы (IVARDENSPHERE) и эксперимента с
drum-n-bass ритмами (CYANOTIC). Резюме: "Transfusion" - разноплановый по ремиксовым подходам и достойный внимания бонус к последнему альбому UNIT:187, уважительно обошедшийся с оригинальным материалом и четко выдерживающий
конкуренцию с новым студийным творением тех же FEAR FACTORY. Кому понравились оригинальные песни группы, тому должны прийтись по вкусу и новоиспеченные ремиксы. Могу уверенно сказать, что как минимум половина материала диска мне
очень понравилась, а к остальным ремиксам я не питаю большого негатива. [7 баллов]
Источник: http://www.machinistmusic.net
#777
Лейбл: Off Beat
Номер по каталогу: O-113
Страна-производитель диска: Germany
Год выпуска диска: 1997
Дата выхода оригинального издания: 1997
Тип издания: CD, Maxi-Single
Продолжительность: 00:40:47
Источник (релизер): Собственный рип
Наличие сканов в содержимом раздачи: да, PNG 600dpi

Треклист
01. Stillborn (Radio Edit) [03:00]
02. Stillborn (Satoven Mix) [04:41]
03. Looking At The Love Load (I Need Nobody But Me) [05:01]
04. Nobody (Radio Edit) [04:52]
05. Loaded (Hate Dept. Mix) [04:43]
06. Dead Dog (Open Surgery Mix) [05:07]
07. Lardass (Remix Radio Edit) [05:25]
08. Dead Dog (Punter Mix) [04:55]
09. Planet Claire [03:00]
Код:
Exact Audio Copy V0.99 prebeta 5 from 4. May 2009
Отчёт EAC об извлечении, выполненном 24. февраля 2012, 23:43
Unit:187 / Dead Dog
Дисковод: PIONEER BD-RW   BDR-206   Adapter: 1  ID: 1
Режим чтения                 : Достоверность
Использование точного потока : Да
Отключение кэша аудио        : Да
Использование указателей C2  : Нет
Коррекция смещения при чтении                     : 667
Способность читать области Lead-in и Lead-out     : Нет
Заполнение пропущенных сэмплов тишиной            : Да
Удаление блоков с тишиной в начале и конце        : Нет
При вычислениях CRC использовались нулевые сэмплы : Да
Интерфейс                                         : Встроенный Win32-интерфейс для Win NT/2000
Выходной формат          : Пользовательский кодировщик
Выбранный битрейт        : 1024 kBit/s
Качество                 : Высокий
Добавление ID3-тэга      : Нет
Утилита сжатия           : C:\Program Files (x86)\Exact Audio Copy\FLAC\FLAC.EXE
Дополнительные параметры : -8 -V -T "ARTIST=%a" -T "TITLE=%t" -T "ALBUM=%g" -T "DATE=%y" -T "TRACKNUMBER=%n" -T "GENRE=%m" -T "COMMENT=%e" %s -o %d
TOC извлечённого CD
     Трек |   Старт  | Длительность | Начальный сектор | Конечный сектор
    ---------------------------------------------------------------------
       1  |  0:00.00 |    3:00.52   |           0      |      13551
       2  |  3:00.52 |    4:41.30   |       13552      |      34656
       3  |  7:42.07 |    5:01.08   |       34657      |      57239
       4  | 12:43.15 |    4:52.27   |       57240      |      79166
       5  | 17:35.42 |    4:43.10   |       79167      |     100401
       6  | 22:18.52 |    5:07.02   |      100402      |     123428
       7  | 27:25.54 |    5:25.71   |      123429      |     147874
       8  | 32:51.50 |    4:55.10   |      147875      |     170009
       9  | 37:46.60 |    3:00.67   |      170010      |     183576
Характеристики диапазона извлечения и сообщения об ошибках
Выбранный диапазон
     Имя файла D:\РАЗДАЧИ!!!!\Unit187 - Dead Dog (Maxi-Single) - 1997\Unit 187 - Dead Dog.wav
     Пиковый уровень 100.0 %
     Качество диапазона 100.0 %
     CRC теста D5EB8E6F
     CRC копии D5EB8E6F
     Копирование... OK
Ошибок не произошло
AccurateRip: сводка
Трек  1  точность не определена (достоверность 8)  [1A4F4D52], AccurateRip вернул [71CFAE2C]
Трек  2  точность не определена (достоверность 8)  [31A0D9B6], AccurateRip вернул [85FA9D49]
Трек  3  точность не определена (достоверность 8)  [38A82936], AccurateRip вернул [84152BB3]
Трек  4  точность не определена (достоверность 8)  [0C08E3D0], AccurateRip вернул [59024F2B]
Трек  5  точность не определена (достоверность 8)  [3965D5FA], AccurateRip вернул [631E142C]
Трек  6  точность не определена (достоверность 8)  [BBFBA98B], AccurateRip вернул [58D34647]
Трек  7  точность не определена (достоверность 8)  [E4A666F8], AccurateRip вернул [37BC302C]
Трек  8  точность не определена (достоверность 8)  [A7C8890C], AccurateRip вернул [6F46379A]
Трек  9  точность не определена (достоверность 8)  [F05E839B], AccurateRip вернул [B3E762F0]
Ни один трек не прошёл проверки на точность
В вашей базе может быть иной вариант штамповки диска
Конец отчёта
 
Код:
 REM GENRE Industrial
REM DATE 1997
REM DISCID 7A098F09
REM COMMENT "ExactAudioCopy v0.99pb5"
PERFORMER "Unit:187"
TITLE "Dead Dog"
FILE "Unit 187 - Dead Dog.flac" WAVE
  TRACK 01 AUDIO
    TITLE "Stillborn (Radio Edit)"
    PERFORMER "Unit:187"
    INDEX 01 00:00:00
  TRACK 02 AUDIO
    TITLE "Stillborn (Satoven Mix)"
    PERFORMER "Unit:187"
    INDEX 01 03:00:52
  TRACK 03 AUDIO
    TITLE "Looking At The Love Load (I Need Nobody But Me)"
    PERFORMER "Unit:187"
    INDEX 01 07:42:07
  TRACK 04 AUDIO
    TITLE "Nobody (Radio Edit)"
    PERFORMER "Unit:187"
    INDEX 01 12:43:15
  TRACK 05 AUDIO
    TITLE "Loaded (Hate Dept. Mix)"
    PERFORMER "Unit:187"
    INDEX 01 17:35:42
  TRACK 06 AUDIO
    TITLE "Dead Dogs (Open Surgery Mix)"
    PERFORMER "Unit:187"
    INDEX 01 22:18:52
  TRACK 07 AUDIO
    TITLE "Lardass (Remix Radio Edit)"
    PERFORMER "Unit:187"
    INDEX 01 27:25:54
  TRACK 08 AUDIO
    TITLE "Dead Dogs (Punter Mix)"
    PERFORMER "Unit:187"
    INDEX 01 32:51:50
  TRACK 09 AUDIO
    TITLE "Planet Claire"
    PERFORMER "Unit:187"
    INDEX 01 37:46:60
 
Код:
AUDIOCHECKER v2.0 beta (build 457) - by Dester - opdester@freemail.hu
~~~~~~~~~~~~~~~~~~~~~~~~~~~~~~~~~~
-=== DO NOT EDIT THIS FILE! ===-
Path: ...\Unit187 - Dead Dog (Maxi-Single) - 1997
1 -=- Unit 187 - Dead Dog.flac -=- CDDA (99%)
218584516
   
#777
Лейбл: 21st Circuitry
Номер по каталогу: 21C.CD29
Страна-производитель диска: USA
Год выпуска диска: 1997
Дата выхода оригинального издания: 1997
Тип издания: CD, Maxi-Single
Продолжительность: 00:40:47
Источник (релизер): Собственный рип
Наличие сканов в содержимом раздачи: да, PNG 600dpi

Треклист
01. Stillborn (Radio Edit) [03:00]
02. Stillborn (Satoven Mix) [04:41]
03. Looking At The Love Load (I Need Nobody But Me) [05:01]
04. Nobody (Radio Edit) [04:52]
05. Loaded (Hate Dept. Mix) [04:43]
06. Dead Dog (Open Surgery Mix) [05:07]
07. Lardass (Remix Radio Edit) [05:25]
08. Dead Dog (Punter Mix) [04:55]
09. Planet Claire [03:00]
Код:
Exact Audio Copy V0.99 prebeta 5 from 4. May 2009
Отчёт EAC об извлечении, выполненном 19. июня 2012, 21:36
Unit:187 / Stillborn (Maxi-Single)
Дисковод: PIONEER BD-RW   BDR-206   Adapter: 1  ID: 1
Режим чтения                 : Достоверность
Использование точного потока : Да
Отключение кэша аудио        : Да
Использование указателей C2  : Нет
Коррекция смещения при чтении                     : 667
Способность читать области Lead-in и Lead-out     : Нет
Заполнение пропущенных сэмплов тишиной            : Да
Удаление блоков с тишиной в начале и конце        : Нет
При вычислениях CRC использовались нулевые сэмплы : Да
Интерфейс                                         : Встроенный Win32-интерфейс для Win NT/2000
Выходной формат          : Пользовательский кодировщик
Выбранный битрейт        : 1024 kBit/s
Качество                 : Высокий
Добавление ID3-тэга      : Нет
Утилита сжатия           : C:\Program Files (x86)\Exact Audio Copy\FLAC\FLAC.EXE
Дополнительные параметры : -8 -V -T "ARTIST=%a" -T "TITLE=%t" -T "ALBUM=%g" -T "DATE=%y" -T "TRACKNUMBER=%n" -T "GENRE=%m" -T "COMMENT=%e" %s -o %d
TOC извлечённого CD
     Трек |   Старт  | Длительность | Начальный сектор | Конечный сектор
    ---------------------------------------------------------------------
       1  |  0:00.00 |    3:00.52   |           0      |      13551
       2  |  3:00.52 |    4:41.30   |       13552      |      34656
       3  |  7:42.07 |    5:01.08   |       34657      |      57239
       4  | 12:43.15 |    4:52.27   |       57240      |      79166
       5  | 17:35.42 |    4:43.10   |       79167      |     100401
       6  | 22:18.52 |    5:07.02   |      100402      |     123428
       7  | 27:25.54 |    5:25.71   |      123429      |     147874
       8  | 32:51.50 |    4:55.10   |      147875      |     170009
       9  | 37:46.60 |    3:00.67   |      170010      |     183576
Характеристики диапазона извлечения и сообщения об ошибках
Выбранный диапазон
     Имя файла D:\РАЗДАЧИ!!!!\Unit 187 - Stillborn (Maxi-Single) - 1997\Unit 187 - Stillborn (Maxi-Single).wav
     Пиковый уровень 100.0 %
     Качество диапазона 100.0 %
     CRC теста B1598795
     CRC копии B1598795
     Копирование... OK
Ошибок не произошло
AccurateRip: сводка
Трек  1  точное извлечение (доверие 8)  [71CFAE2C]
Трек  2  точное извлечение (доверие 8)  [85FA9D49]
Трек  3  точное извлечение (доверие 8)  [84152BB3]
Трек  4  точное извлечение (доверие 8)  [59024F2B]
Трек  5  точное извлечение (доверие 8)  [631E142C]
Трек  6  точное извлечение (доверие 8)  [58D34647]
Трек  7  точное извлечение (доверие 8)  [37BC302C]
Трек  8  точное извлечение (доверие 8)  [6F46379A]
Трек  9  точное извлечение (доверие 8)  [B3E762F0]
Все треки извлечены точно
Конец отчёта
Код:
 REM GENRE Industrial
REM DATE 1997
REM DISCID 7A098F09
REM COMMENT "ExactAudioCopy v0.99pb5"
PERFORMER "Unit:187"
TITLE "Stillborn (Maxi-Single)"
FILE "Unit 187 - Stillborn (Maxi-Single).flac" WAVE
  TRACK 01 AUDIO
    TITLE "Stillborn (Radio Edit)"
    PERFORMER "Unit:187"
    INDEX 01 00:00:00
  TRACK 02 AUDIO
    TITLE "Stillborn (Satoven Mix)"
    PERFORMER "Unit:187"
    INDEX 00 03:00:50
    INDEX 01 03:00:52
  TRACK 03 AUDIO
    TITLE "Looking At The Love Load (I Need Nobody But Me)"
    PERFORMER "Unit:187"
    INDEX 00 07:42:05
    INDEX 01 07:42:07
  TRACK 04 AUDIO
    TITLE "Nobody (Radio Edit)"
    PERFORMER "Unit:187"
    INDEX 00 12:43:13
    INDEX 01 12:43:15
  TRACK 05 AUDIO
    TITLE "Loaded (Hate Dept. Mix)"
    PERFORMER "Unit:187"
    INDEX 00 17:35:40
    INDEX 01 17:35:42
  TRACK 06 AUDIO
    TITLE "Dead Dogs (Open Surgery Mix)"
    PERFORMER "Unit:187"
    INDEX 00 22:18:50
    INDEX 01 22:18:52
  TRACK 07 AUDIO
    TITLE "Lardass (Remix Radio Edit)"
    PERFORMER "Unit:187"
    INDEX 00 27:25:52
    INDEX 01 27:25:54
  TRACK 08 AUDIO
    TITLE "Dead Dogs (Punter Mix)"
    PERFORMER "Unit:187"
    INDEX 00 32:51:48
    INDEX 01 32:51:50
  TRACK 09 AUDIO
    TITLE "Planet Claire"
    PERFORMER "Unit:187"
    INDEX 00 37:46:58
    INDEX 01 37:46:60
 
Код:
AUDIOCHECKER v2.0 beta (build 457) - by Dester - opdester@freemail.hu
~~~~~~~~~~~~~~~~~~~~~~~~~~~~~~~~~~
-=== DO NOT EDIT THIS FILE! ===-
Path: ...\Unit 187 - Stillborn (Maxi-Single) - 1997
1 -=- Unit 187 - Stillborn (Maxi-Single).flac -=- CDDA (99%)
213769620
"Stillborn" - это новый макси-сингл от канадской группы Unit:187. В прошлом году она привлекла внимание немецкого лэйбла Off Beat, который заключил с ними контракт на дистрибуцию
их релизов в Европе. Все еще имея контракт с 21st Circuitry здесь в штатах, Unit:187 создали этот девятитрековый диск, полный ремиксов и нескольких сюрпризов. Начинают CD два
ремикса заглавного трека, из которых первый был подсокращен, чтобы быть более приспособленным к проигрыванию на радио. Вторая версия, Satoven Mix, была сделана участником группы
John Morgan, который помещает break-beat перкуссию на передний план трека, делая ее ведущей силой. Следующее произведение, Looking at the Love Load (I Need Nobody But Me) - это
очень интересная композиция. Содержащий сэмплы из Kentucky Fried Movie, этот трек - более или менее атмосферная/экспериментальная композиция с небольшим присутствием вокала между
текстурными секвенциями. Следующий трек, производства Hate Dept., располагает бит очень высоко в миксе, даже поверх полушепчущего вокала Tod'а. Далее следуют два разных ремикса
Dead Dog, из которых первый более приметен. В который раз кажется, что бит играет тут выдающуюся роль, однако второстепенную по отношению к дросселирующим гитарным риффам. CD
заканчивается треком с альбома "Loaded", кавер-версией Planet Claire группы B-52.
Источник: http://www.industrialreviews.ru
Конечно, можно этот релиз заливать и на других трекерах и файлообменниках. Но, если взять редкость, и конкретно первый альбом, (его вряд ли где либо найти в таком качестве), и само собой всю коллекцию, и сразу будет понятно, откуда всё это; то попрошу, ссылка на первоисточник обязательна.
Необходимо в описании добавить наш банер или сослаться на ресурс.
Код:
Код:
[b]Релиз:[/b] [img]http://s60.radikal.ru/i168/1103/b2/7817dead5b2b.gif[/img]

Релиз:
Правила, инструкции, FAQ!!!
Торрент  Добавлен [26 июн 2020, 19:51] Скачать торрент Магнет ссылка
Скачать торрент
[ Размер 21.74 КБ / Просмотров 7 ]

Статус
Проверен 
 
Размер  3.21 ГБ
Приватный: Нет (DHT включён)
.torrent скачан  0
 


     Отправить личное сообщение
   
Страница 1 из 1
Показать сообщения за:  Поле сортировки  
Начать новую тему Ответить на тему


Сейчас этот форум просматривают: нет зарегистрированных пользователей и гости: 0


Вы не можете начинать темы
Вы не можете отвечать на сообщения
Вы не можете редактировать свои сообщения
Вы не можете удалять свои сообщения
Вы не можете добавлять вложения

Перейти:  
cron