Начать новую тему Ответить на тему
Статистика раздачи
Размер: 328.95 МБ | Добавлен: 26 июн 2020, 17:52 | Скачали: 0
Сидеров: 0  [0 байт/сек]    Личеров: 0  [0 байт/сек]
Пред. тема | След. тема 

Автор
Сообщение

СообщениеДобавлено: 26 июн 2020, 17:52 

Ответить с цитатой 

Skinny Puppy - hanDover
Жанр: Industrial / EBM / Electro
Год издания диска: 2011
Страна: 00:50:04
Аудиокодек: FLAC (*.flac)
Тип рипа: tracks+.cue
Битрейт аудио: lossless
Продолжительность: 00:50:04
Источник (релизер): what.cd (Headphuq)
Наличие сканов в содержимом раздачи: нет
Треклист:
1. ovirt
2. cullorblind
3. wavy
4. ashas
5. gambatte
6. icktums
7. point
8. brownstone
9. vyrisus
10. village
11. noisex
Exact Audio Copy V1.0 beta 1 from 15. November 2010
EAC extraction logfile from 21. October 2011, 20:18
Skinny Puppy / HanDover
Used drive : IDE-DVD DROM6216 Adapter: 0 ID: 1
Read mode : Secure
Utilize accurate stream : Yes
Defeat audio cache : Yes
Make use of C2 pointers : No
Read offset correction : 738
Overread into Lead-In and Lead-Out : No
Fill up missing offset samples with silence : Yes
Delete leading and trailing silent blocks : No
Null samples used in CRC calculations : Yes
Used interface : Native Win32 interface for Win NT & 2000
Gap handling : Appended to previous track
Used output format : User Defined Encoder
Selected bitrate : 896 kBit/s
Quality : High
Add ID3 tag : No
Command line compressor : J:\Program Files\FLAC\flac.exe
Additional command line options : -V -8 -T "artist=%a" -T "title=%t" -T "album=%g" -T "date=%y" -T "tracknumber=%n" -T "genre=%m" %s
TOC of the extracted CD
Track | Start | Length | Start sector | End sector
---------------------------------------------------------
1 | 0:00.00 | 4:51.73 | 0 | 21897
2 | 4:51.73 | 5:48.00 | 21898 | 47997
3 | 10:39.73 | 4:34.27 | 47998 | 68574
4 | 15:14.25 | 3:30.00 | 68575 | 84324
5 | 18:44.25 | 3:25.53 | 84325 | 99752
6 | 22:10.03 | 5:16.04 | 99753 | 123456
7 | 27:26.07 | 3:38.13 | 123457 | 139819
8 | 31:04.20 | 3:28.19 | 139820 | 155438
9 | 34:32.39 | 4:07.49 | 155439 | 174012
10 | 38:40.13 | 4:09.17 | 174013 | 192704
11 | 42:49.30 | 7:14.61 | 192705 | 225315
Track 1
Filename C:\Personal Rips\Skinny Puppy - 2011 - HanDover\01 - Ovirt.wav
Pre-gap length 0:00:02.00
Peak level 100.0 %
Extraction speed 1.4 X
Track quality 100.0 %
Test CRC E15F6708
Copy CRC E15F6708
Track not present in AccurateRip database
Copy OK
Track 2
Filename C:\Personal Rips\Skinny Puppy - 2011 - HanDover\02 - Cullorblind.wav
Peak level 99.7 %
Extraction speed 1.5 X
Track quality 99.9 %
Test CRC C4EDF280
Copy CRC C4EDF280
Track not present in AccurateRip database
Copy OK
Track 3
Filename C:\Personal Rips\Skinny Puppy - 2011 - HanDover\03 - Wavy.wav
Peak level 100.0 %
Extraction speed 1.8 X
Track quality 100.0 %
Test CRC 90F8A657
Copy CRC 90F8A657
Track not present in AccurateRip database
Copy OK
Track 4
Filename C:\Personal Rips\Skinny Puppy - 2011 - HanDover\04 - Ashas.wav
Peak level 100.0 %
Extraction speed 1.8 X
Track quality 100.0 %
Test CRC 28D5C6A1
Copy CRC 28D5C6A1
Track not present in AccurateRip database
Copy OK
Track 5
Filename C:\Personal Rips\Skinny Puppy - 2011 - HanDover\05 - Gambatte.wav
Peak level 99.6 %
Extraction speed 1.9 X
Track quality 100.0 %
Test CRC 749488E5
Copy CRC 749488E5
Track not present in AccurateRip database
Copy OK
Track 6
Filename C:\Personal Rips\Skinny Puppy - 2011 - HanDover\06 - Icktums.wav
Peak level 100.0 %
Extraction speed 2.2 X
Track quality 100.0 %
Test CRC 52F4EA25
Copy CRC 52F4EA25
Track not present in AccurateRip database
Copy OK
Track 7
Filename C:\Personal Rips\Skinny Puppy - 2011 - HanDover\07 - Point.wav
Peak level 100.0 %
Extraction speed 1.9 X
Track quality 99.9 %
Test CRC 3C2F6F3B
Copy CRC 3C2F6F3B
Track not present in AccurateRip database
Copy OK
Track 8
Filename C:\Personal Rips\Skinny Puppy - 2011 - HanDover\08 - Brownstone.wav
Peak level 100.0 %
Extraction speed 2.2 X
Track quality 100.0 %
Test CRC B5371E59
Copy CRC B5371E59
Track not present in AccurateRip database
Copy OK
Track 9
Filename C:\Personal Rips\Skinny Puppy - 2011 - HanDover\09 - Vyrisus.wav
Peak level 100.0 %
Extraction speed 2.4 X
Track quality 100.0 %
Test CRC 37E26C37
Copy CRC 37E26C37
Track not present in AccurateRip database
Copy OK
Track 10
Filename C:\Personal Rips\Skinny Puppy - 2011 - HanDover\10 - Village.wav
Peak level 100.0 %
Extraction speed 2.5 X
Track quality 100.0 %
Test CRC C07F4F74
Copy CRC C07F4F74
Track not present in AccurateRip database
Copy OK
Track 11
Filename C:\Personal Rips\Skinny Puppy - 2011 - HanDover\11 - Noisex.wav
Peak level 94.9 %
Extraction speed 2.8 X
Track quality 100.0 %
Test CRC 850ED74F
Copy CRC 850ED74F
Track not present in AccurateRip database
Copy OK
None of the tracks are present in the AccurateRip database
No errors occurred
End of status report
==== Log checksum 51E8B9FD84DBDBA840B2E2AD84FB15961B8192E12B20C19C2737217E10F2D1D4 ====
REM GENRE Industrial
REM DATE 2011
REM DISCID 8B0BBC0B
REM COMMENT "ExactAudioCopy v1.0b1"
FILE "Skinny Puppy - 2011 - HanDover\01 - Ovirt.wav" WAVE
TRACK 01 AUDIO
INDEX 01 00:00:00
FILE "Skinny Puppy - 2011 - HanDover\02 - Cullorblind.wav" WAVE
TRACK 02 AUDIO
INDEX 01 00:00:00
FILE "Skinny Puppy - 2011 - HanDover\03 - Wavy.wav" WAVE
TRACK 03 AUDIO
INDEX 01 00:00:00
FILE "Skinny Puppy - 2011 - HanDover\04 - Ashas.wav" WAVE
TRACK 04 AUDIO
INDEX 01 00:00:00
FILE "Skinny Puppy - 2011 - HanDover\05 - Gambatte.wav" WAVE
TRACK 05 AUDIO
INDEX 01 00:00:00
FILE "Skinny Puppy - 2011 - HanDover\06 - Icktums.wav" WAVE
TRACK 06 AUDIO
INDEX 01 00:00:00
FILE "Skinny Puppy - 2011 - HanDover\07 - Point.wav" WAVE
TRACK 07 AUDIO
INDEX 01 00:00:00
FILE "Skinny Puppy - 2011 - HanDover\08 - Brownstone.wav" WAVE
TRACK 08 AUDIO
INDEX 01 00:00:00
FILE "Skinny Puppy - 2011 - HanDover\09 - Vyrisus.wav" WAVE
TRACK 09 AUDIO
INDEX 01 00:00:00
FILE "Skinny Puppy - 2011 - HanDover\10 - Village.wav" WAVE
TRACK 10 AUDIO
INDEX 01 00:00:00
FILE "Skinny Puppy - 2011 - HanDover\11 - Noisex.wav" WAVE
TRACK 11 AUDIO
INDEX 01 00:00:00
Правила, инструкции, FAQ!!!
Торрент  Добавлен [26 июн 2020, 17:52] Скачать торрент Магнет ссылка
Скачать торрент
[ Размер 13.93 КБ / Просмотров 13 ]

Статус
Проверен 
 
Размер  328.95 МБ
Приватный: Нет (DHT включён)
.torrent скачан  0
 


     Отправить личное сообщение
   
Страница 1 из 1
Показать сообщения за:  Поле сортировки  
Начать новую тему Ответить на тему


Сейчас этот форум просматривают: нет зарегистрированных пользователей и гости: 0


Вы не можете начинать темы
Вы не можете отвечать на сообщения
Вы не можете редактировать свои сообщения
Вы не можете удалять свои сообщения
Вы не можете добавлять вложения

Перейти:  
cron