Начать новую тему Ответить на тему
Статистика раздачи
Размер: 2.08 ГБ | Добавлен: 26 июн 2020, 20:22 | Скачали: 0
Сидеров: 0  [0 байт/сек]    Личеров: 0  [0 байт/сек]
Пред. тема | След. тема 

Автор
Сообщение

СообщениеДобавлено: 26 июн 2020, 20:22 

Ответить с цитатой 

Mentallo And The Fixer / A Collection Of Rare, Unrealeased & Remastered
Жанр: Industrial, EBM, Electro
Страна-производитель диска: Belgium
Год издания: 2012
Издатель (лейбл): Alfa Matrix
Номер по каталогу: AM1175FCD
Страна: USA
Аудиокодек: FLAC (*.flac)
Тип рипа: image+.cue
Битрейт аудио: lossless
Продолжительность: 1:13:50.63 + 1:07:53.44 + 1:13:20.61 + 1:11:28.15
Источник (релизер): 4CD Box из личной коллекции.
Наличие сканов в содержимом раздачи: да
Discogs
#77701. Battered States Of Euphoria (Medina Mix) 6:48
02. Decomposed (Original Mix) 4:24
03. Pulse Hemorrhage (Abrasive Mix) 7:21
04. Ancient Languagez (Lingua Mix) 6:43
05. Altered States Of Euphoria 3:43
06. Legion Of Lepers (Lesionary Mix) 9:17
07. Scum Of The Earth (Bloody Mix) 3:28
08. Natalia, Texas 1989 (Zamora Mix) 1:17
09. Grim Reality (Blister Mix) 6:50
10. Inhumanities 4:57
11. Decomposed (Trampled) 6:31
12. Mother Of Harlots (Ghetto Crusher Edit) 5:31
13. Medley: Atom Smasher / Euphoria Finale 7:00
Код:
Exact Audio Copy V1.0 beta 3 from 29. August 2011
Отчёт EAC об извлечении, выполненном 25. мая 2012, 8:02
Mentallo And The Fixer / Until The Blood Flows Freely
Дисковод: hp      DVD-RAM UJ8B1   Adapter: 0  ID: 2
Режим чтения                 : Достоверность
Использование точного потока : Да
Отключение кэша аудио        : Да
Использование указателей C2  : Нет
Коррекция смещения при чтении                     : 6
Способность читать области Lead-in и Lead-out     : Нет
Заполнение пропущенных сэмплов тишиной            : Да
Удаление блоков с тишиной в начале и конце        : Нет
При вычислениях CRC использовались нулевые сэмплы : Да
Интерфейс                                         : Встроенный Win32-интерфейс для Win NT/2000
Выходной формат          : Пользовательский кодировщик
Выбранный битрейт        : 1024 kBit/s
Качество                 : Высокий
Добавление ID3-тега      : Нет
Утилита сжатия           : C:\Program Files (x86)\Exact Audio Copy\FLAC\FLAC.EXE
Дополнительные параметры : -V -8 -T "Date=%year%" -T "Genre=%genre%" %source%
TOC извлечённого CD
     Трек |   Старт  | Длительность | Начальный сектор | Конечный сектор
    ---------------------------------------------------------------------
       1  |  0:00.00 |    6:48.12   |           0      |      30611
       2  |  6:48.12 |    4:23.51   |       30612      |      50387
       3  | 11:11.63 |    7:21.35   |       50388      |      83497
       4  | 18:33.23 |    6:43.19   |       83498      |     113741
       5  | 25:16.42 |    3:42.48   |      113742      |     130439
       6  | 28:59.15 |    9:16.74   |      130440      |     172213
       7  | 38:16.14 |    3:28.34   |      172214      |     187847
       8  | 41:44.48 |    1:17.13   |      187848      |     193635
       9  | 43:01.61 |    6:49.58   |      193636      |     224368
      10  | 49:51.44 |    4:57.26   |      224369      |     246669
      11  | 54:48.70 |    6:31.20   |      246670      |     276014
      12  | 61:20.15 |    5:30.44   |      276015      |     300808
      13  | 66:50.59 |    7:00.04   |      300809      |     332312
Характеристики диапазона извлечения и сообщения об ошибках
Выбранный диапазон
     Имя файла C:\Users\HP\Music\Mentallo And The Fixer - Until The Blood Flows Freely.wav
     Пиковый уровень 100.0 %
     Скорость извлечения 4.7 X
     Качество диапазона 99.9 %
     CRC теста CD343329
     CRC копии CD343329
     Копирование... OK
Ошибок не произошло
AccurateRip: сводка
Трек  1  отсутствует в базе данных
Трек  2  отсутствует в базе данных
Трек  3  отсутствует в базе данных
Трек  4  отсутствует в базе данных
Трек  5  отсутствует в базе данных
Трек  6  отсутствует в базе данных
Трек  7  отсутствует в базе данных
Трек  8  отсутствует в базе данных
Трек  9  отсутствует в базе данных
Трек 10  отсутствует в базе данных
Трек 11  отсутствует в базе данных
Трек 12  отсутствует в базе данных
Трек 13  отсутствует в базе данных
Ни одного трека нет в базе AccurateRip
Конец отчёта
==== Контрольная сумма отчёта A4A76DFB94D3ABD57FD08BDA72123C241D038662113077E631832BE7F31F5967 ====
Код:
REM GENRE Industrial
REM DATE 2012
REM DISCID AE114E0D
REM COMMENT "ExactAudioCopy v1.0b3"
PERFORMER "Mentallo And The Fixer"
TITLE "Until The Blood Flows Freely"
FILE "Mentallo And The Fixer - Until The Blood Flows Freely.flac" WAVE
  TRACK 01 AUDIO
    TITLE "Battered States Of Euphoria (Medina Mix)"
    PERFORMER "Mentallo And The Fixer"
    INDEX 01 00:00:00
  TRACK 02 AUDIO
    TITLE "Decomposed (Original Mix)"
    PERFORMER "Mentallo And The Fixer"
    INDEX 01 06:48:12
  TRACK 03 AUDIO
    TITLE "Pulse Hemorrhage (Abrasive)"
    PERFORMER "Mentallo And The Fixer"
    INDEX 01 11:11:63
  TRACK 04 AUDIO
    TITLE "Ancheint Languages (Lingua)"
    PERFORMER "Mentallo And The Fixer"
    INDEX 01 18:33:23
  TRACK 05 AUDIO
    TITLE "Altered States Of Euphoria"
    PERFORMER "Mentallo And The Fixer"
    INDEX 01 25:16:42
  TRACK 06 AUDIO
    TITLE "Legion Of Lesion (Lesionary Mix)"
    PERFORMER "Mentallo And The Fixer"
    INDEX 01 28:59:15
  TRACK 07 AUDIO
    TITLE "Scum On The Earth (Bloody)"
    PERFORMER "Mentallo And The Fixer"
    INDEX 01 38:16:14
  TRACK 08 AUDIO
    TITLE "Natalia Texas (Zomora Mix 1989)"
    PERFORMER "Mentallo And The Fixer"
    INDEX 01 41:44:48
  TRACK 09 AUDIO
    TITLE "Grim Reality (Blister Mix)"
    PERFORMER "Mentallo And The Fixer"
    INDEX 01 43:01:61
  TRACK 10 AUDIO
    TITLE "Inhumanities"
    PERFORMER "Mentallo And The Fixer"
    INDEX 01 49:51:44
  TRACK 11 AUDIO
    TITLE "Decomposed (Trampled)"
    PERFORMER "Mentallo And The Fixer"
    INDEX 01 54:48:70
  TRACK 12 AUDIO
    TITLE "Mother Of Harlots (Ghetto Crusher Edit)"
    PERFORMER "Mentallo And The Fixer"
    INDEX 01 61:20:15
  TRACK 13 AUDIO
    TITLE "Atom Smasher/Euphoria Final"
    PERFORMER "Mentallo And The Fixer"
    INDEX 01 66:50:59
Код:
[url=https://fastpic.ru/view/37/2012/0525/db1c62e934a4b2de51981fa80263ec7a.jpg.html][img]http://i37.fastpic.ru/thumb/2012/0525/7a/db1c62e934a4b2de51981fa80263ec7a.jpeg[/img][/url][url=https://fastpic.ru/view/38/2012/0525/b36bbc5a048427d0c687a6977c6b8c4e.jpg.html][img]http://i38.fastpic.ru/thumb/2012/0525/4e/b36bbc5a048427d0c687a6977c6b8c4e.jpeg[/img][/url][url=https://fastpic.ru/view/36/2012/0525/0a2856b3f63bdcace5c62e09a18f09d0.jpg.html][img]http://i36.fastpic.ru/thumb/2012/0525/d0/0a2856b3f63bdcace5c62e09a18f09d0.jpeg[/img][/url][url=https://fastpic.ru/view/34/2012/0525/abae7360b093ca3bfaf827ed0e528392.jpg.html][img]http://i34.fastpic.ru/thumb/2012/0525/92/abae7360b093ca3bfaf827ed0e528392.jpeg[/img][/url]
#77701. Legion Of Lepers - Sacrificial 6:01
02. Pulse Hemmorage (Aggro Instrumental) 4:17
03. Sacrilege (Benediction Mix) 5:55
04. Muderers Among Us (Bloody Knuckles Instrumental) 6:46
05. Grounded 12:32
06. Legion Of Lepers - Deep Kick 1:53
07. Decomposed - Spent 2:19
08. Sacrilege - For Generations To Come 3:36
09. Radiant 1 8:03
10. Introduction: To The Last Days Of The System 5:02
11. Proximo - Coronal Mass 3:22
12. Unearthed Monolithic 1:51
13. Medley: Choice Flaw / Tantric Awarness 3:29
14. Inner Peace - Can You Feel Sunlight 1:47
15. Inner Peace - Bouncin' Off The Moon 0:58
Код:
Exact Audio Copy V1.0 beta 3 from 29. August 2011
Отчёт EAC об извлечении, выполненном 25. мая 2012, 9:09
Mentallo And The Fixer / Inner Sanctum
Дисковод: hp      DVD-RAM UJ8B1   Adapter: 0  ID: 2
Режим чтения                 : Достоверность
Использование точного потока : Да
Отключение кэша аудио        : Да
Использование указателей C2  : Нет
Коррекция смещения при чтении                     : 6
Способность читать области Lead-in и Lead-out     : Нет
Заполнение пропущенных сэмплов тишиной            : Да
Удаление блоков с тишиной в начале и конце        : Нет
При вычислениях CRC использовались нулевые сэмплы : Да
Интерфейс                                         : Встроенный Win32-интерфейс для Win NT/2000
Выходной формат          : Пользовательский кодировщик
Выбранный битрейт        : 1024 kBit/s
Качество                 : Высокий
Добавление ID3-тега      : Нет
Утилита сжатия           : C:\Program Files (x86)\Exact Audio Copy\FLAC\FLAC.EXE
Дополнительные параметры : -V -8 -T "Date=%year%" -T "Genre=%genre%" %source%
TOC извлечённого CD
     Трек |   Старт  | Длительность | Начальный сектор | Конечный сектор
    ---------------------------------------------------------------------
       1  |  0:00.00 |    6:01.34   |           0      |      27108
       2  |  6:01.34 |    4:17.20   |       27109      |      46403
       3  | 10:18.54 |    5:55.35   |       46404      |      73063
       4  | 16:14.14 |    6:45.60   |       73064      |     103498
       5  | 22:59.74 |   12:31.70   |      103499      |     159893
       6  | 35:31.69 |    1:53.33   |      159894      |     168401
       7  | 37:25.27 |    2:19.07   |      168402      |     178833
       8  | 39:44.34 |    3:35.60   |      178834      |     195018
       9  | 43:20.19 |    8:02.38   |      195019      |     231206
      10  | 51:22.57 |    5:02.32   |      231207      |     253888
      11  | 56:25.14 |    3:22.33   |      253889      |     269071
      12  | 59:47.47 |    1:51.35   |      269072      |     277431
      13  | 61:39.07 |    3:28.66   |      277432      |     293097
      14  | 65:07.73 |    1:47.28   |      293098      |     301150
      15  | 66:55.26 |    0:58.18   |      301151      |     305518
Характеристики диапазона извлечения и сообщения об ошибках
Выбранный диапазон
     Имя файла C:\Users\HP\Music\Mentallo And The Fixer - Inner Sanctum.wav
     Пиковый уровень 100.0 %
     Скорость извлечения 4.7 X
     Качество диапазона 100.0 %
     CRC теста 1FAA2B90
     CRC копии 1FAA2B90
     Копирование... OK
Ошибок не произошло
AccurateRip: сводка
Трек  1  отсутствует в базе данных
Трек  2  отсутствует в базе данных
Трек  3  отсутствует в базе данных
Трек  4  отсутствует в базе данных
Трек  5  отсутствует в базе данных
Трек  6  отсутствует в базе данных
Трек  7  отсутствует в базе данных
Трек  8  отсутствует в базе данных
Трек  9  отсутствует в базе данных
Трек 10  отсутствует в базе данных
Трек 11  отсутствует в базе данных
Трек 12  отсутствует в базе данных
Трек 13  отсутствует в базе данных
Трек 14  отсутствует в базе данных
Трек 15  отсутствует в базе данных
Ни одного трека нет в базе AccurateRip
Конец отчёта
==== Контрольная сумма отчёта 66C8BCE744D19F03C4017C4DADBEDCBF2C5AF8D6565C517BB6C3998A4A940196 ====
Код:
REM GENRE Industrial
REM DATE 2012
REM DISCID D70FE90F
REM COMMENT "ExactAudioCopy v1.0b3"
PERFORMER "Mentallo And The Fixer"
TITLE "Inner Sanctum"
FILE "Mentallo And The Fixer - Inner Sanctum.flac" WAVE
  TRACK 01 AUDIO
    TITLE "Legion Of Leppers (Sacrificial)"
    PERFORMER "Mentallo And The Fixer"
    INDEX 01 00:00:00
  TRACK 02 AUDIO
    TITLE "Pulse Hemorrhage (Aggro Instrumental)"
    PERFORMER "Mentallo And The Fixer"
    INDEX 01 06:01:34
  TRACK 03 AUDIO
    TITLE "Sacrilege (Benediction Mix)"
    PERFORMER "Mentallo And The Fixer"
    INDEX 01 10:18:54
  TRACK 04 AUDIO
    TITLE "Murderers Among Us (Bloody Knuckles Instrumental)"
    PERFORMER "Mentallo And The Fixer"
    INDEX 01 16:14:14
  TRACK 05 AUDIO
    TITLE "Grounded"
    PERFORMER "Mentallo And The Fixer"
    INDEX 01 22:59:74
  TRACK 06 AUDIO
    TITLE "Ligion Of Leppers (Deep Kick)"
    PERFORMER "Mentallo And The Fixer"
    INDEX 01 35:31:69
  TRACK 07 AUDIO
    TITLE "Decomposed (Spent)"
    PERFORMER "Mentallo And The Fixer"
    INDEX 01 37:25:27
  TRACK 08 AUDIO
    TITLE "Sacrilege (For Generations To Come)"
    PERFORMER "Mentallo And The Fixer"
    INDEX 01 39:44:34
  TRACK 09 AUDIO
    TITLE "Radiant 1"
    PERFORMER "Mentallo And The Fixer"
    INDEX 01 43:20:19
  TRACK 10 AUDIO
    TITLE "Introduction - Last Days Of The System"
    PERFORMER "Mentallo And The Fixer"
    INDEX 01 51:22:57
  TRACK 11 AUDIO
    TITLE "Proximo (Coronal Mass)"
    PERFORMER "Mentallo And The Fixer"
    INDEX 01 56:25:14
  TRACK 12 AUDIO
    TITLE "Unearthed Monolithic"
    PERFORMER "Mentallo And The Fixer"
    INDEX 01 59:47:47
  TRACK 13 AUDIO
    TITLE "Choice Flow - Tantric Awareness"
    PERFORMER "Mentallo And The Fixer"
    INDEX 01 61:39:07
  TRACK 14 AUDIO
    TITLE "Inner Peace (Can You Feel The Sunlight)"
    PERFORMER "Mentallo And The Fixer"
    INDEX 01 65:07:73
  TRACK 15 AUDIO
    TITLE "Inner Peace (Bouncin' Off The Moon)"
    PERFORMER "Mentallo And The Fixer"
    INDEX 01 66:55:26
Код:
[url=https://fastpic.ru/view/36/2012/0525/50d4faa81aa215d55822e18699413d70.jpg.html][img]http://i36.fastpic.ru/thumb/2012/0525/70/50d4faa81aa215d55822e18699413d70.jpeg[/img][/url][url=https://fastpic.ru/view/36/2012/0525/4930ad6cd333645c4f97478306b3c67b.jpg.html][img]http://i36.fastpic.ru/thumb/2012/0525/7b/4930ad6cd333645c4f97478306b3c67b.jpeg[/img][/url][url=https://fastpic.ru/view/37/2012/0525/f4e02362c61ecdbbee3321a86d7df952.jpg.html][img]http://i37.fastpic.ru/thumb/2012/0525/52/f4e02362c61ecdbbee3321a86d7df952.jpeg[/img][/url][url=https://fastpic.ru/view/38/2012/0525/382830eff46dfe7aae480eb66fcce2eb.jpg.html][img]http://i38.fastpic.ru/thumb/2012/0525/eb/382830eff46dfe7aae480eb66fcce2eb.jpeg[/img][/url]
#77701. Polyhedron - Benelux 3:40
02. Polyhedron - Benelux (Benediction Mix) 4:48
03. Polyhedron - Melancholy 4:04
04. Mentallo And The Fixer - Disrupture (Vortex Radio Edit) 3:31
05. Mentallo And The Fixer - Narcotik Calling 3:05
06. Mainesthai - My Animocity 5:15
07. Mainesthai - Wartime 5:16
08. Mainesthai - Wartime (Trampled) 5:07
09. Mainesthai - Exit (KillJoy Mix) 6:59
10. Mentallo And The Fixer - Light Year (Mentallo Mix) 5:35
11. Benestrophe - No Sleep Tonight (Milo Mix) 4:30
12. Mentallo And The Fixer - Michael (Re-Edit) 9:16
13. Mentallo And The Fixer - Cherished And Suppressed 12:16
Код:
Exact Audio Copy V1.0 beta 3 from 29. August 2011
Отчёт EAC об извлечении, выполненном 25. мая 2012, 10:18
Mentallo And The Fixer / Nostalgia Deluxe 1
Дисковод: hp      DVD-RAM UJ8B1   Adapter: 0  ID: 2
Режим чтения                 : Достоверность
Использование точного потока : Да
Отключение кэша аудио        : Да
Использование указателей C2  : Нет
Коррекция смещения при чтении                     : 6
Способность читать области Lead-in и Lead-out     : Нет
Заполнение пропущенных сэмплов тишиной            : Да
Удаление блоков с тишиной в начале и конце        : Нет
При вычислениях CRC использовались нулевые сэмплы : Да
Интерфейс                                         : Встроенный Win32-интерфейс для Win NT/2000
Выходной формат          : Пользовательский кодировщик
Выбранный битрейт        : 1024 kBit/s
Качество                 : Высокий
Добавление ID3-тега      : Нет
Утилита сжатия           : C:\Program Files (x86)\Exact Audio Copy\FLAC\FLAC.EXE
Дополнительные параметры : -V -8 -T "Date=%year%" -T "Genre=%genre%" %source%
TOC извлечённого CD
     Трек |   Старт  | Длительность | Начальный сектор | Конечный сектор
    ---------------------------------------------------------------------
       1  |  0:00.00 |    3:40.09   |           0      |      16508
       2  |  3:40.09 |    4:47.50   |       16509      |      38083
       3  |  8:27.59 |    4:03.40   |       38084      |      56348
       4  | 12:31.24 |    3:30.66   |       56349      |      72164
       5  | 16:02.15 |    3:05.05   |       72165      |      86044
       6  | 19:07.20 |    5:14.63   |       86045      |     109657
       7  | 24:22.08 |    5:16.12   |      109658      |     133369
       8  | 29:38.20 |    5:07.26   |      133370      |     156420
       9  | 34:45.46 |    6:58.59   |      156421      |     187829
      10  | 41:44.30 |    5:34.56   |      187830      |     212935
      11  | 47:19.11 |    4:29.49   |      212936      |     233159
      12  | 51:48.60 |    9:16.13   |      233160      |     274872
      13  | 61:04.73 |   12:15.63   |      274873      |     330060
Характеристики диапазона извлечения и сообщения об ошибках
Выбранный диапазон
     Имя файла C:\Users\HP\Music\Mentallo And The Fixer - Nostalgia Deluxe 1.wav
     Пиковый уровень 100.0 %
     Скорость извлечения 4.7 X
     Качество диапазона 100.0 %
     CRC теста 9D58E65B
     CRC копии 9D58E65B
     Копирование... OK
Ошибок не произошло
AccurateRip: сводка
Трек  1  отсутствует в базе данных
Трек  2  отсутствует в базе данных
Трек  3  отсутствует в базе данных
Трек  4  отсутствует в базе данных
Трек  5  отсутствует в базе данных
Трек  6  отсутствует в базе данных
Трек  7  отсутствует в базе данных
Трек  8  отсутствует в базе данных
Трек  9  отсутствует в базе данных
Трек 10  отсутствует в базе данных
Трек 11  отсутствует в базе данных
Трек 12  отсутствует в базе данных
Трек 13  отсутствует в базе данных
Ни одного трека нет в базе AccurateRip
Конец отчёта
==== Контрольная сумма отчёта 78BAF2957CC3E0B392197E1B62230755D36BF4466D07577CA47958861613CC9A ====
Код:
REM GENRE Industrial
REM DATE 2012
REM DISCID AD11300D
REM COMMENT "ExactAudioCopy v1.0b3"
PERFORMER "Mentallo And The Fixer"
TITLE "Nostalgia Deluxe 1"
FILE "Mentallo And The Fixer - Nostalgia Deluxe 1.flac" WAVE
  TRACK 01 AUDIO
    TITLE "Benelux [Polyhedron Project]"
    PERFORMER "Mentallo And The Fixer"
    INDEX 01 00:00:00
  TRACK 02 AUDIO
    TITLE "Benelux (Benediction Mix) [Polyhedron Project] "
    PERFORMER "Mentallo And The Fixer"
    INDEX 01 03:40:09
  TRACK 03 AUDIO
    TITLE "Melancholy [Polyhedron Project]"
    PERFORMER "Mentallo And The Fixer"
    INDEX 01 08:27:59
  TRACK 04 AUDIO
    TITLE "Disrupture (Vortex Radio Edit)"
    PERFORMER "Mentallo And The Fixer"
    INDEX 01 12:31:24
  TRACK 05 AUDIO
    TITLE "Narcotik Calling - Deathwish"
    PERFORMER "Mentallo And The Fixer"
    INDEX 01 16:02:15
  TRACK 06 AUDIO
    TITLE "My Animocity [Mainesthai Project]"
    PERFORMER "Mentallo And The Fixer"
    INDEX 01 19:07:20
  TRACK 07 AUDIO
    TITLE "Wartime [Mainesthai Project]"
    PERFORMER "Mentallo And The Fixer"
    INDEX 01 24:22:08
  TRACK 08 AUDIO
    TITLE "Wartime Trampled [Mainesthai Project]"
    PERFORMER "Mentallo And The Fixer"
    INDEX 01 29:38:20
  TRACK 09 AUDIO
    TITLE "Exit (Killjoy Mix) [Mainesthai Project]"
    PERFORMER "Mentallo And The Fixer"
    INDEX 01 34:45:46
  TRACK 10 AUDIO
    TITLE "Lightyear (Mentallo Mix)"
    PERFORMER "Mentallo And The Fixer"
    INDEX 01 41:44:30
  TRACK 11 AUDIO
    TITLE "No Sleep Tonight (Milo Mix) [Benestrophe Project]"
    PERFORMER "Mentallo And The Fixer"
    INDEX 01 47:19:11
  TRACK 12 AUDIO
    TITLE "Michael (Re Edit)"
    PERFORMER "Mentallo And The Fixer"
    INDEX 01 51:48:60
  TRACK 13 AUDIO
    TITLE "Cherished And Suppressed"
    PERFORMER "Mentallo And The Fixer"
    INDEX 01 61:04:73
Код:
[url=https://fastpic.ru/view/38/2012/0525/a0fc5d7b9bef54e4b37ec0f79b46e5e4.jpg.html][img]http://i38.fastpic.ru/thumb/2012/0525/e4/a0fc5d7b9bef54e4b37ec0f79b46e5e4.jpeg[/img][/url][url=https://fastpic.ru/view/34/2012/0525/962149f5cdf8a09d57ae094fef9956d0.jpg.html][img]http://i34.fastpic.ru/thumb/2012/0525/d0/962149f5cdf8a09d57ae094fef9956d0.jpeg[/img][/url][url=https://fastpic.ru/view/37/2012/0525/5857d8dd60315f3257dee7e06307598d.jpg.html][img]http://i37.fastpic.ru/thumb/2012/0525/8d/5857d8dd60315f3257dee7e06307598d.jpeg[/img][/url][url=https://fastpic.ru/view/36/2012/0525/0f6c68b53a0f28b517f744c5ef52d150.jpg.html][img]http://i36.fastpic.ru/thumb/2012/0525/50/0f6c68b53a0f28b517f744c5ef52d150.jpeg[/img][/url]
#77701. Benestrophe - Flesh Decay 6:02
02. Benestrophe - Churchyard 4:59
03. Benestrophe - PSY 5:52
04. Benestrophe - DCO 5:03
05. Benestrophe - Ritual 5:57
06. Benestrophe - Doglab 6:42
07. Benestrophe - Kopkiller 5:26
08. Benestrophe - HIV Test Positive 6:23
09. Benestrophe - Pig Butcher 7:03
10. Benestrophe - D.I. Bomber 6:18
11. Benestrophe - Planets 5:49
12. Benestrophe - Shall Not Want 5:55
Код:
Exact Audio Copy V1.0 beta 3 from 29. August 2011
Отчёт EAC об извлечении, выполненном 25. мая 2012, 11:23
Benestrophe / Incantations
Дисковод: hp      DVD-RAM UJ8B1   Adapter: 0  ID: 2
Режим чтения                 : Достоверность
Использование точного потока : Да
Отключение кэша аудио        : Да
Использование указателей C2  : Нет
Коррекция смещения при чтении                     : 6
Способность читать области Lead-in и Lead-out     : Нет
Заполнение пропущенных сэмплов тишиной            : Да
Удаление блоков с тишиной в начале и конце        : Нет
При вычислениях CRC использовались нулевые сэмплы : Да
Интерфейс                                         : Встроенный Win32-интерфейс для Win NT/2000
Выходной формат          : Пользовательский кодировщик
Выбранный битрейт        : 1024 kBit/s
Качество                 : Высокий
Добавление ID3-тега      : Нет
Утилита сжатия           : C:\Program Files (x86)\Exact Audio Copy\FLAC\FLAC.EXE
Дополнительные параметры : -V -8 -T "Date=%year%" -T "Genre=%genre%" %source%
TOC извлечённого CD
     Трек |   Старт  | Длительность | Начальный сектор | Конечный сектор
    ---------------------------------------------------------------------
       1  |  0:00.00 |    6:02.23   |           0      |      27172
       2  |  6:02.23 |    4:59.03   |       27173      |      49600
       3  | 11:01.26 |    5:51.49   |       49601      |      75974
       4  | 16:53.00 |    5:03.14   |       75975      |      98713
       5  | 21:56.14 |    5:57.05   |       98714      |     125493
       6  | 27:53.19 |    6:41.42   |      125494      |     155610
       7  | 34:34.61 |    5:25.52   |      155611      |     180037
       8  | 40:00.38 |    6:22.48   |      180038      |     208735
       9  | 46:23.11 |    7:02.58   |      208736      |     240443
      10  | 53:25.69 |    6:18.11   |      240444      |     268804
      11  | 59:44.05 |    5:49.36   |      268805      |     295015
      12  | 65:33.41 |    5:54.49   |      295016      |     321614
Характеристики диапазона извлечения и сообщения об ошибках
Выбранный диапазон
     Имя файла C:\Users\HP\Music\Benestrophe - Incantations.wav
     Пиковый уровень 99.7 %
     Скорость извлечения 4.5 X
     Качество диапазона 99.9 %
     CRC теста 6D899D9A
     CRC копии 6D899D9A
     Копирование... OK
Ошибок не произошло
AccurateRip: сводка
Трек  1  отсутствует в базе данных
Трек  2  отсутствует в базе данных
Трек  3  отсутствует в базе данных
Трек  4  отсутствует в базе данных
Трек  5  отсутствует в базе данных
Трек  6  отсутствует в базе данных
Трек  7  отсутствует в базе данных
Трек  8  отсутствует в базе данных
Трек  9  отсутствует в базе данных
Трек 10  отсутствует в базе данных
Трек 11  отсутствует в базе данных
Трек 12  отсутствует в базе данных
Ни одного трека нет в базе AccurateRip
Конец отчёта
==== Контрольная сумма отчёта 973F735942669575658E043250C5CD9324C944E916CAB6842F7F961F1C299D72 ====
Код:
REM GENRE Industrial
REM DATE 2012
REM DISCID A810C00C
REM COMMENT "ExactAudioCopy v1.0b3"
PERFORMER "Benestrophe"
TITLE "Incantations"
FILE "Benestrophe - Incantations.flac" WAVE
  TRACK 01 AUDIO
    TITLE "Flesh Decay"
    PERFORMER "Benestrophe"
    INDEX 01 00:00:00
  TRACK 02 AUDIO
    TITLE "Churchyard"
    PERFORMER "Benestrophe"
    INDEX 00 06:00:23
    INDEX 01 06:02:23
  TRACK 03 AUDIO
    TITLE "Psy"
    PERFORMER "Benestrophe"
    INDEX 01 11:01:26
  TRACK 04 AUDIO
    TITLE "Dco"
    PERFORMER "Benestrophe"
    INDEX 01 16:53:00
  TRACK 05 AUDIO
    TITLE "Ritual"
    PERFORMER "Benestrophe"
    INDEX 00 21:54:73
    INDEX 01 21:56:14
  TRACK 06 AUDIO
    TITLE "Doglab"
    PERFORMER "Benestrophe"
    INDEX 00 27:51:02
    INDEX 01 27:53:19
  TRACK 07 AUDIO
    TITLE "Copkiller"
    PERFORMER "Benestrophe"
    INDEX 00 34:33:74
    INDEX 01 34:34:61
  TRACK 08 AUDIO
    TITLE "Hiv Test Positiv"
    PERFORMER "Benestrophe"
    INDEX 01 40:00:38
  TRACK 09 AUDIO
    TITLE "Pig Butcher"
    PERFORMER "Benestrophe"
    INDEX 01 46:23:11
  TRACK 10 AUDIO
    TITLE "D.I. Bomber"
    PERFORMER "Benestrophe"
    INDEX 01 53:25:69
  TRACK 11 AUDIO
    TITLE "Planets"
    PERFORMER "Benestrophe"
    INDEX 00 59:43:12
    INDEX 01 59:44:05
  TRACK 12 AUDIO
    TITLE "Shall Not Want"
    PERFORMER "Benestrophe"
    INDEX 01 65:33:41
Код:
[url=https://fastpic.ru/view/38/2012/0525/8997accf4f99fabd2d318f10f0fd5514.jpg.html][img]http://i38.fastpic.ru/thumb/2012/0525/14/8997accf4f99fabd2d318f10f0fd5514.jpeg[/img][/url][url=https://fastpic.ru/view/38/2012/0525/2d847fa66d1edb93ccc749795884d971.jpg.html][img]http://i38.fastpic.ru/thumb/2012/0525/71/2d847fa66d1edb93ccc749795884d971.jpeg[/img][/url][url=https://fastpic.ru/view/38/2012/0525/e5ec0cb9d6b583699a863bfa52a6aa69.jpg.html][img]http://i38.fastpic.ru/thumb/2012/0525/69/e5ec0cb9d6b583699a863bfa52a6aa69.jpeg[/img][/url][url=https://fastpic.ru/view/37/2012/0525/3b10d07b5eee751ccba1545c00462c89.jpg.html][img]http://i37.fastpic.ru/thumb/2012/0525/89/3b10d07b5eee751ccba1545c00462c89.jpeg[/img][/url]

Rare tracks:
CD 1 - 2,6,9,12
CD 3 - 9,10
Unreleased tracks:
CD 1 - 1,3,4,5,8,13
CD 2 - 1,2,3,4,5,6,7,8,9,10,11,12,13,14,15
CD 3 - 1,2,3,4,5,11
CD 4 - 1,2,3,4,5,6,7,9,10,11,12
Remastered tracks:
CD 1 - 7,10,11
CD 3 - 6,7,8,12,13
Правила, инструкции, FAQ!!!
Торрент  Добавлен [26 июн 2020, 20:22] Скачать торрент Магнет ссылка
Скачать торрент
[ Размер 14.88 КБ / Просмотров 12 ]

Статус
Проверен 
 
Размер  2.08 ГБ
Приватный: Нет (DHT включён)
.torrent скачан  0
 


     Отправить личное сообщение
   
Страница 1 из 1
Показать сообщения за:  Поле сортировки  
Начать новую тему Ответить на тему


Сейчас этот форум просматривают: нет зарегистрированных пользователей и гости: 0


Вы не можете начинать темы
Вы не можете отвечать на сообщения
Вы не можете редактировать свои сообщения
Вы не можете удалять свои сообщения
Вы не можете добавлять вложения

Перейти:  
cron