Начать новую тему Ответить на тему
Статистика раздачи
Размер: 677.14 МБ | Добавлен: 26 июн 2020, 19:42 | Скачали: 0
Сидеров: 3  [0 байт/сек]    Личеров: 1  [0 байт/сек]
Пред. тема | След. тема 

Автор
Сообщение

СообщениеДобавлено: 26 июн 2020, 19:42 

Ответить с цитатой 

Dkay.com(ex-Die Krupps) - Deeper into the Heart of Dysfunction

Жанр: Industrial, EBM
Страна-производитель диска: Germany
Год издания диска: 2002
Издатель (лейбл): Our Choice, Zomba Records
Номер по каталогу: RTD 195.3963.2
Страна: Germany
Аудио кодек: FLAC (*.flac)
Тип рипа: image+.cue
Битрейт аудио: lossless
Продолжительность: 01:18:04
Источник (релизер): Собственный рип DMMANIAC
Наличие сканов в содержимом раздачи: да, PNG 300dpi
Треклист
01. The Beauty's In The Beast 4:22
02. Your Own Prison 3:38
03. 2 B.F. 4:51
04. Friendly Fire 5:04
05. All - Time Low 4:30
06. Film Noir 5:15
07. Born Exposed 4:11
08. The Old Primal Force 4:48
09. Deeper Into The Heart Of Dysfunction 5:16
10. Minefield Of Emotions 3:16
11. Sanctuary 4:28
12. Carcrash Music For Now People 4:22
13. Ghostrider 4:38
14. B.C. 2002 2:25
15. Uebermensch 4:17
16. What's Next? 4:34
17. Film Noir (In Strict Confidence Remix) 4:30
18. Your Own Prison (Under Heavy Pressure Remix) 3:32
Особая благодарность DMMANIAС за помощь в оформлении релиза!
Код:
Exact Audio Copy V0.99 prebeta 4 from 23. January 2008
Отчёт EAC об извлечении, выполненном 2. марта 2011, 20:27
DKAY.COM / Deeper into the Heart of Dysfunction (Extra Tracks)
Дисковод: Optiarc DVD RW AD-7243S   Adapter: 1  ID: 1
Режим чтения                 : Достоверность
Использование точного потока : Да
Отключение кэша аудио        : Да
Использование указателей C2  : Нет
Коррекция смещения при чтении                     : 48
Способность читать области Lead-in и Lead-out     : Нет
Заполнение пропущенных сэмплов тишиной            : Да
Удаление блоков с тишиной в начале и конце        : Нет
При вычислениях CRC использовались нулевые сэмплы : Да
Интерфейс                                         : Встроенный Win32-интерфейс для Win NT/2000
Выходной формат : Внутренние WAV-операции
Формат сэмплов  : 44.100 Гц; 16 бит; стерео
TOC извлечённого CD
     Трек |   Старт  | Длительность | Начальный сектор | Конечный сектор
    ---------------------------------------------------------------------
       1  |  0:00.00 |    4:22.67   |           0      |      19716
       2  |  4:22.67 |    3:38.10   |       19717      |      36076
       3  |  8:01.02 |    4:51.03   |       36077      |      57904
       4  | 12:52.05 |    5:04.49   |       57905      |      80753
       5  | 17:56.54 |    4:30.21   |       80754      |     101024
       6  | 22:27.00 |    5:15.35   |      101025      |     124684
       7  | 27:42.35 |    4:11.22   |      124685      |     143531
       8  | 31:53.57 |    4:48.25   |      143532      |     165156
       9  | 36:42.07 |    5:16.70   |      165157      |     188926
      10  | 41:59.02 |    3:16.35   |      188927      |     203661
      11  | 45:15.37 |    4:28.18   |      203662      |     223779
      12  | 49:43.55 |    4:22.10   |      223780      |     243439
      13  | 54:05.65 |    4:38.05   |      243440      |     264294
      14  | 58:43.70 |    2:25.22   |      264295      |     275191
      15  | 61:09.17 |    4:17.35   |      275192      |     294501
      16  | 65:26.52 |    4:34.55   |      294502      |     315106
      17  | 70:01.32 |    4:30.33   |      315107      |     335389
      18  | 74:31.65 |    3:32.27   |      335390      |     351316
Характеристики диапазона извлечения и сообщения об ошибках
Выбранный диапазон
     Имя файла D:\DKAY.COM - Deeper into the Heart of Dysfunction (Extra Tracks).wav
     Пиковый уровень 99.8 %
     Качество диапазона 100.0 %
     CRC теста 84B5A0F2
     CRC копии 84B5A0F2
     Копирование... OK
Ошибок не произошло
AccurateRip: сводка
Трек  1  точность не определена (достоверность 3)  [D012A4EC], AccurateRip вернул [64AAFEFF]
Трек  2  точность не определена (достоверность 3)  [4423C65A], AccurateRip вернул [D5F8A17C]
Трек  3  точность не определена (достоверность 3)  [86459005], AccurateRip вернул [8AF4832E]
Трек  4  точность не определена (достоверность 3)  [7F6D2470], AccurateRip вернул [E04C9F3C]
Трек  5  точность не определена (достоверность 3)  [B1858D84], AccurateRip вернул [458BF6D2]
Трек  6  точность не определена (достоверность 3)  [F1E732F7], AccurateRip вернул [7C4A5BB4]
Трек  7  точность не определена (достоверность 3)  [2E25A834], AccurateRip вернул [44C91B8D]
Трек  8  точность не определена (достоверность 3)  [A6D0A613], AccurateRip вернул [925C28B7]
Трек  9  точность не определена (достоверность 3)  [4C41DBB5], AccurateRip вернул [76D1190A]
Трек 10  точность не определена (достоверность 3)  [E6AF3D0A], AccurateRip вернул [AC931A41]
Трек 11  точность не определена (достоверность 3)  [2A180E00], AccurateRip вернул [ED643B10]
Трек 12  точность не определена (достоверность 3)  [02A3A14A], AccurateRip вернул [C0254EEB]
Трек 13  точность не определена (достоверность 3)  [47D3706C], AccurateRip вернул [587F515C]
Трек 14  точность не определена (достоверность 3)  [73C7B399], AccurateRip вернул [D2237B5E]
Трек 15  точность не определена (достоверность 3)  [60DC31CD], AccurateRip вернул [D8C3B343]
Трек 16  точность не определена (достоверность 3)  [CE91D527], AccurateRip вернул [B63B2138]
Трек 17  точность не определена (достоверность 3)  [07F97065], AccurateRip вернул [E6AA3C37]
Трек 18  точность не определена (достоверность 3)  [1AC0A5D9], AccurateRip вернул [C2B3D8A4]
Ни один трек не прошёл проверки на точность
В вашей базе может быть иной вариант штамповки диска
Конец отчёта
Код:
 REM GENRE Industrial
REM DATE 2002
REM DISCID 0E124C12
REM COMMENT "ExactAudioCopy v0.99pb4"
PERFORMER "DKAY.COM"
TITLE "Deeper into the Heart of Dysfunction (Extra Tracks)"
FILE "DKAY.COM - Deeper into the Heart of Dysfunction (Extra Tracks).flac" WAVE
  TRACK 01 AUDIO
    TITLE "The Beauty's In The Beast"
    PERFORMER "DKAY.COM"
    ISRC DEA790200101
    INDEX 01 00:00:00
  TRACK 02 AUDIO
    TITLE "Your Own Prison"
    PERFORMER "DKAY.COM"
    ISRC DEA790200102
    INDEX 01 04:22:67
  TRACK 03 AUDIO
    TITLE "2 B.F."
    PERFORMER "DKAY.COM"
    ISRC DEA790200103
    INDEX 01 08:01:02
  TRACK 04 AUDIO
    TITLE "Friendly Fire"
    PERFORMER "DKAY.COM"
    ISRC DEA790200104
    INDEX 01 12:52:05
  TRACK 05 AUDIO
    TITLE "All - Time Low"
    PERFORMER "DKAY.COM"
    ISRC DEA790200105
    INDEX 01 17:56:54
  TRACK 06 AUDIO
    TITLE "Film Noir"
    PERFORMER "DKAY.COM"
    ISRC DEA790200106
    INDEX 01 22:27:00
  TRACK 07 AUDIO
    TITLE "Born Exposed"
    PERFORMER "DKAY.COM"
    ISRC DEA790200107
    INDEX 01 27:42:35
  TRACK 08 AUDIO
    TITLE "The Old Primal Force"
    PERFORMER "DKAY.COM"
    ISRC DEA790200108
    INDEX 01 31:53:57
  TRACK 09 AUDIO
    TITLE "Deeper Into The Heart Of Dysfunction"
    PERFORMER "DKAY.COM"
    ISRC DEA790200109
    INDEX 01 36:42:07
  TRACK 10 AUDIO
    TITLE "Minefield of Emotions"
    PERFORMER "DKAY.COM"
    ISRC DEA790200110
    INDEX 00 41:57:65
    INDEX 01 41:59:02
  TRACK 11 AUDIO
    TITLE "Sanctuary"
    PERFORMER "DKAY.COM"
    ISRC DEA790200111
    INDEX 01 45:15:37
  TRACK 12 AUDIO
    TITLE "Carcrash Music For Now People"
    PERFORMER "DKAY.COM"
    ISRC DEA790200112
    INDEX 01 49:43:55
  TRACK 13 AUDIO
    TITLE "Ghostrider"
    PERFORMER "DKAY.COM"
    ISRC DEA790200113
    INDEX 01 54:05:65
  TRACK 14 AUDIO
    TITLE "B.C. 2002"
    PERFORMER "DKAY.COM"
    ISRC DEA790200114
    INDEX 01 58:43:70
  TRACK 15 AUDIO
    TITLE "Uebermensch"
    PERFORMER "DKAY.COM"
    ISRC DEA790200115
    INDEX 01 61:09:17
  TRACK 16 AUDIO
    TITLE "What's Next?"
    PERFORMER "DKAY.COM"
    ISRC DEA790200116
    INDEX 01 65:26:52
  TRACK 17 AUDIO
    TITLE "Film Noir (In Strict Confidence Remix)"
    PERFORMER "DKAY.COM"
    ISRC DEA790200117
    INDEX 01 70:01:32
  TRACK 18 AUDIO
    TITLE "Your Own Prison (Under Heavy Pressure Remix)"
    PERFORMER "DKAY.COM"
    ISRC DEA790200118
    INDEX 01 74:31:65
 
Код:
AUDIOCHECKER v2.0 beta (build 457) - by Dester - opdester@freemail.hu
~~~~~~~~~~~~~~~~~~~~~~~~~~~~~~~~~~
-=== DO NOT EDIT THIS FILE! ===-
Path: ...\2002 =Deeper into the Heart of Dysfunction=
1 -=- DKAY.COM - Deeper into the Heart of Dysfunction (Extra Tracks).flac -=- CDDA (100%)
245465108
Наследница Die Krupps, группа с названием DKay.com, удивительно похожим на адрес сайта в Интернете, весной 2002 года выпустила свой первый альбом со времён дебютного полноформатного диска, тем самым доведя количество таких дисков до двух. Альбом назван "Deeper Into The Heart Of Dysfunction" и битком набит огромным количеством совершенно новых треков, общая численность которых достигает шестнадцати, а в особо индивидуальных, лимитированных случаях - даже восемнадцати. Когда-то давно, в рецензии на диск "Decaydenz", я позволил себе немного поразглагольствовать по поводу разницы между DKay.com и Die Krupps, которая там явно прослеживалась. Позвольте же нынче заявить - эта разница теперь стёрта, а рассматриваемый диск необыкновенно напоминает по звучанию старенький альбомчик "Paradise Now", как будто был написан одновременно с ним. Повторено всё: мелодии, вокал, смачная гитара. Небольшим отступлением от канона можно назвать наличие каких-то там техно-примочек во вступлениях, но развитие их тонет во всепоглощающей тяжёлой, как гружёный самосвал, гитары, пронизывающей колонки и слушателя насквозь. Все песни этого диска выполнены очень ровно, и поэтому трудно выделить какую-либо из них, и если и есть какие-то шедевры среди представленного на суд покупателей материала, то они тонут в обилии, в общем-то, сереньких песенок. Альбом потешит поклонников притяжелённого периода существования Die Krupps и вообще всех тех, кому нравится этакий тяжёлый металл с наличием в нём электроники, но в целом мне кажется, что диск получился хуже дебюта и может, в общем случае, быть проигнорирован...
Источник: http://www.industrialreviews.ru
Мои раздачи Die Krupps
1995 - Odyssey Of The Mind (III)
1995 - Isolation (Maxi-Single)
1996 - Metalmorphosis Of Die Krupps '81-'92
1997 - Paradise Now
2008 - Too Much History (2CD)
2010 - Stahlwerksynfonie (2CD Reissue, Remastered)
Правила, инструкции, FAQ!!!
Торрент  Добавлен [26 июн 2020, 19:42] Скачать торрент Магнет ссылка
Скачать торрент
[ Размер 14.89 КБ / Просмотров 11 ]

Статус
Проверен 
 
Размер  677.14 МБ
Приватный: Нет (DHT включён)
.torrent скачан  0
 


     Отправить личное сообщение
   
Страница 1 из 1
Показать сообщения за:  Поле сортировки  
Начать новую тему Ответить на тему


Сейчас этот форум просматривают: нет зарегистрированных пользователей и гости: 0


Вы не можете начинать темы
Вы не можете отвечать на сообщения
Вы не можете редактировать свои сообщения
Вы не можете удалять свои сообщения
Вы не можете добавлять вложения

Перейти:  
cron