Начать новую тему Ответить на тему
Статистика раздачи
Размер: 467.99 МБ | Добавлен: 26 июн 2020, 21:09 | Скачали: 0
Сидеров: 0  [0 байт/сек]    Личеров: 0  [0 байт/сек]
Пред. тема | След. тема 

Автор
Сообщение

СообщениеДобавлено: 26 июн 2020, 21:09 

Ответить с цитатой 

Velvet Acid Christ - The Art Of Breaking Apart

Жанр: Industrial/EBM/Dark Electro
Год выпуска диска: 2009
Производитель диска: United States of America (Westminster, Colorado)
Аудио кодек: FLAC
Тип рипа: tracks+.cue
Битрейт аудио: lossless
Продолжительность: 01:11:12
Релиз: antistuff (what.cd)
Список песен:
01. (04:51) Tripped Out
02. (04:44) Vaporized
03. (04:35) Black Rainbows
04. (07:50) Phucked Up Phreak
05. (04:06) Killing A Stranger
06. (05:11) The Art Of Breaking Apart
07. (04:48) Caustic Disco
08. (05:16) Killed In Space
09. (04:57) Amnesia
10. (04:18) Faithless
11. (20:37) Silver
Состав группы:
Bryan Erickson – lead vocals, composition, guitar, lyrics, mixing, production, various
Код:
Exact Audio Copy V0.99 prebeta 5 from 4. May 2009
EAC extraction logfile from 18. November 2009, 5:53
Velvet Acid Christ / The Art of Breaking Apart
Used drive  : Optiarc DVD RW AD-7530B   Adapter: 1  ID: 0
Read mode               : Secure
Utilize accurate stream : Yes
Defeat audio cache      : Yes
Make use of C2 pointers : No
Read offset correction                      : 6
Overread into Lead-In and Lead-Out          : No
Fill up missing offset samples with silence : Yes
Delete leading and trailing silent blocks   : No
Null samples used in CRC calculations       : No
Used interface                              : Native Win32 interface for Win NT & 2000
Gap handling                                : Appended to previous track
Used output format              : User Defined Encoder
Selected bitrate                : 768 kBit/s
Quality                         : High
Add ID3 tag                     : No
Command line compressor         : C:\Program Files\Exact Audio Copy\FLAC\FLAC.EXE
Additional command line options : -6 -V -T "ARTIST=%a" -T "TITLE=%t" -T "ALBUM=%g" -T "DATE=%y" -T "TRACKNUMBER=%n" -T "GENRE=%m" -T "COMMENT=%e" %s -o %d
TOC of the extracted CD
     Track |   Start  |  Length  | Start sector | End sector
    ---------------------------------------------------------
        1  |  0:00.00 |  4:50.39 |         0    |    21788
        2  |  4:50.39 |  4:43.61 |     21789    |    43074
        3  |  9:34.25 |  4:34.63 |     43075    |    63687
        4  | 14:09.13 |  7:50.29 |     63688    |    98966
        5  | 21:59.42 |  4:06.12 |     98967    |   117428
        6  | 26:05.54 |  5:10.73 |    117429    |   140751
        7  | 31:16.52 |  4:47.45 |    140752    |   162321
        8  | 36:04.22 |  5:16.21 |    162322    |   186042
        9  | 41:20.43 |  4:57.32 |    186043    |   208349
       10  | 46:18.00 |  4:17.52 |    208350    |   227676
       11  | 50:35.52 | 20:37.21 |    227677    |   320472
Track  1
     Filename C:\Documents and Settings\Administrator\Desktop\TheArtOfBreakingApart\Tripped Out.wav
     Pre-gap length  0:00:02.00
     Peak level 99.9 %
     Track quality 100.0 %
     Test CRC 87F7C133
     Copy CRC 87F7C133
     Copy OK
Track  2
     Filename C:\Documents and Settings\Administrator\Desktop\TheArtOfBreakingApart\Vaporized.wav
     Pre-gap length  0:00:01.74
     Peak level 99.9 %
     Track quality 100.0 %
     Test CRC 05D2B2D2
     Copy CRC 05D2B2D2
     Copy OK
Track  3
     Filename C:\Documents and Settings\Administrator\Desktop\TheArtOfBreakingApart\Black Rainbows.wav
     Pre-gap length  0:00:01.74
     Peak level 99.9 %
     Track quality 100.0 %
     Test CRC D827D6EB
     Copy CRC D827D6EB
     Copy OK
Track  4
     Filename C:\Documents and Settings\Administrator\Desktop\TheArtOfBreakingApart\Phucked Up Phreak.wav
     Pre-gap length  0:00:01.62
     Peak level 99.9 %
     Track quality 100.0 %
     Test CRC B2A22ED5
     Copy CRC B2A22ED5
     Copy OK
Track  5
     Filename C:\Documents and Settings\Administrator\Desktop\TheArtOfBreakingApart\Killing A Stranger.wav
     Pre-gap length  0:00:01.74
     Peak level 99.9 %
     Track quality 100.0 %
     Test CRC 51AC00F4
     Copy CRC 51AC00F4
     Copy OK
Track  6
     Filename C:\Documents and Settings\Administrator\Desktop\TheArtOfBreakingApart\The Art Of Breaking Apart.wav
     Pre-gap length  0:00:01.68
     Peak level 99.9 %
     Track quality 100.0 %
     Test CRC ED894B4B
     Copy CRC ED894B4B
     Copy OK
Track  7
     Filename C:\Documents and Settings\Administrator\Desktop\TheArtOfBreakingApart\Caustic Disco.wav
     Pre-gap length  0:00:01.74
     Peak level 99.9 %
     Track quality 100.0 %
     Test CRC 895AF903
     Copy CRC 895AF903
     Copy OK
Track  8
     Filename C:\Documents and Settings\Administrator\Desktop\TheArtOfBreakingApart\Killed In Space.wav
     Pre-gap length  0:00:01.74
     Peak level 99.9 %
     Track quality 100.0 %
     Test CRC C85806BD
     Copy CRC C85806BD
     Copy OK
Track  9
     Filename C:\Documents and Settings\Administrator\Desktop\TheArtOfBreakingApart\Amnesia.wav
     Pre-gap length  0:00:00.72
     Peak level 99.9 %
     Track quality 100.0 %
     Test CRC 92FDCDCE
     Copy CRC 92FDCDCE
     Copy OK
Track 10
     Filename C:\Documents and Settings\Administrator\Desktop\TheArtOfBreakingApart\Faithless.wav
     Pre-gap length  0:00:00.52
     Peak level 99.9 %
     Track quality 99.9 %
     Test CRC 1FF996A5
     Copy CRC 1FF996A5
     Copy OK
Track 11
     Filename C:\Documents and Settings\Administrator\Desktop\TheArtOfBreakingApart\Silver.wav
     Pre-gap length  0:00:01.64
     Peak level 99.9 %
     Track quality 99.9 %
     Test CRC E15873F4
     Copy CRC E15873F4
     Copy OK
No errors occurred
End of status report

Цитата:
Цитата:
Velvet Acid Christ (сокращённо VAC) — музыкальная группа из США, играющая электро-индастриал. Основана в 1990 году в Денвере, штат Колорадо. Лидер группы — Брайан Эриксон (Bryan Erickson), он же Disease Factory, он же Hexfix93. Эта группа изначально являлась чем-то особенным и необычным в своём роде. Совмещая совершенно разные стили и направления в музыке(Gothic, industrial, trip-hop, EBM, dark electro), группа произвела настоящую революцию в мире электронной музыки. Очень сложно охарактеризовывать эту группу именно как «группу», в её «основу» входит один единственный человек — Брайан Эриксон. К нему мы вернёмся позднее, а пока немного из истории этой группы.
Брайан вместе с Grigory Bilham (одним из основателей VAC) были в то время участниками одной punk/funk группы, которая к 1990-му году переобразовалась в трио — Bryan, Chris, и Grig. Изначальное имя группы было Cyberchrist, хотя это имя было сменено на Velvet Acid Christ по истечении двух месяцев с момента создания Cyberchrist. Это название (как говорили сами участники группы) было взято в честь «the bad acid trip»(с). Grig покинул группу в 1992-ом году, оставляя двух основных её участников Брайана и Криса (хотя довольно много музыкантов играли в VAC в качестве «гостей»).
Брайан и Крис в различных интервью называли много групп которые повлияли на их неистовое индустриально-электронное звучание, включая Legendary Pink Dots, the Cure, Skinny Puppy, Orbital, и что удивительно, большое количество металл-групп, включая Napalm Death, Godflesh, и Metallica. Они также раскрывают в своей музыке некоторые социальные проблемы, включая права животных и их отношение к выживанию человечества живя в информационной эре и натиска технологии.
Velvet Acid Christ выпустили их первые альбомы: "Church Of Acid" и "Calling Ov The Dead" на малоизвестной полуандерграундной звукозаписывающей компании Pendragon Records. Альбом Neuroblastoma, огранниченный тираж ранне невыпущенных работ, стал их первым по счёту альбомом выпущенным на Metropolis Records.
Крис вскоре покинул группу, оставляя Брайана единственным членом Velvet Acid Christ. В 1999 возродившийся Velvet Acid Christ — в центре всеобщего внимания с «remix war» между VAC и Funker Vogt, его сингл «Decypher», и третий, самый успешный за всю историю VAC альбом — "Fun With Knives". Twisted Thought Generator продолжил сагу Velvet Acid Christ. Выпущенный в 2000-м году, "Twisted Thought Generator" показал всему миру каким поистине талантливым проектом стала эта американская electro-industrial формация, которая вырвалась на первые позиции в жанре в котором казалось бы доминировали немецкие группы. Сингл «Dial8» дополнил альбом, представляя два ремикса и один бонусный трек, сразу стал на первых строчках немецких industrial чартов, и самым популярным клубным хитом в Америке.
В 2003-м выходит шестой полноформатный альбом «Hex Angel (Utopia/Dystopia)»близкий к звучанию ранних дисков «Church Of Acid», «Calling Ov The Dead» и отчасти даже "Neuroblastoma".
Альбом «Lust For Blood» увидел свет в 2006 году. Пластинка, разительно отличающаяся от предыдущих работ VAC, получила противоречивые оценки у критиков и фанатов.
(c) wiki




Правила, инструкции, FAQ!!!
Торрент  Добавлен [26 июн 2020, 21:09] Скачать торрент Магнет ссылка
Скачать торрент
[ Размер 19.93 КБ / Просмотров 13 ]

Статус
Проверен 
 
Размер  467.99 МБ
Приватный: Нет (DHT включён)
.torrent скачан  0
 


     Отправить личное сообщение
   
Страница 1 из 1
Показать сообщения за:  Поле сортировки  
Начать новую тему Ответить на тему


Сейчас этот форум просматривают: нет зарегистрированных пользователей и гости: 0


Вы не можете начинать темы
Вы не можете отвечать на сообщения
Вы не можете редактировать свои сообщения
Вы не можете удалять свои сообщения
Вы не можете добавлять вложения

Перейти:  
cron