Начать новую тему Ответить на тему
Статистика раздачи
Размер: 895.21 МБ | Добавлен: 26 июн 2020, 16:56 | Скачали: 0
Сидеров: 0  [0 байт/сек]    Личеров: 0  [0 байт/сек]
Пред. тема | След. тема 

Автор
Сообщение

СообщениеДобавлено: 26 июн 2020, 16:56 

Ответить с цитатой 

C-Drone-Defect / Neural Dysorder Syndrome Redux (2012 - NoiTekk / NTK042 / 2CD)
Жанр: Industrial, EBM, Dark Electro
Страна-производитель диска: Germany
Год издания диска: 2012
Издатель (лейбл): NoiTekk
Номер по каталогу: NTK042
Страна: Germany
Аудиокодек: FLAC (*.flac)
Тип рипа: image+.cue
Битрейт аудио: lossless
Продолжительность: 01:04:13 + 00:59:31
Источник (релизер): Свой рип
Наличие сканов в содержимом раздачи: нет
Треклист:
CD1:
01. Res Novae
02. Memento
03. Salva Me
04. Staub (Reconstructed By DYM)
05. I'm Not There (Ashbury Heights Reconstructing Psycho2VII)
06. Farewell (Redux)
07. The Few (Redux)
08. Rei Toei (Redux)
09. Neural Dysorder (Redux)
10. Virus (Redux)
11. Psycho2VII (Redux)
12. Let Me Dream (Redux)
CD2:
01. Virus
02. The Few
03. Neural Dysorder
04. Psycho2VII
05. Rei Toei
06. Mirror, Mirror
07. The Eve Of Lamentation
08. Farewell
09. ...Staub
10. Let Me Dream
11. The Few (Part II)
12. Psycho2VII (11th Floor Mix)
Код:
Exact Audio Copy V1.0 beta 2 from 29. April 2011
EAC extraction logfile from 13. March 2012, 20:28
C-Drone-Defect / Neural Dysorder Syndrome Redux CD1
Used drive  : TSSTcorpCDDVDW SH-S203D   Adapter: 0  ID: 0
Read mode               : Secure
Utilize accurate stream : Yes
Defeat audio cache      : Yes
Make use of C2 pointers : No
Read offset correction                      : 6
Overread into Lead-In and Lead-Out          : No
Fill up missing offset samples with silence : Yes
Delete leading and trailing silent blocks   : No
Null samples used in CRC calculations       : Yes
Used interface                              : Native Win32 interface for Win NT & 2000
Used output format              : User Defined Encoder
Selected bitrate                : 1024 kBit/s
Quality                         : High
Add ID3 tag                     : No
Command line compressor         : C:\Program Files\Exact Audio Copy\FLAC\FLAC.EXE
Additional command line options : -8 -V -T "ARTIST=%artist%" -T "TITLE=%title%" -T "ALBUM=%albumtitle%" -T "DATE=%year%" -T "TRACKNUMBER=%tracknr%" -T "GENRE=%genre%" -T "COMMENT=%comment%" -T "BAND=%albuminterpret%" -T "COMPOSER=%composer%" %haslyrics%--ta
TOC of the extracted CD
     Track |   Start  |  Length  | Start sector | End sector
    ---------------------------------------------------------
        1  |  0:00.00 |  6:23.00 |         0    |    28724
        2  |  6:23.00 |  5:13.46 |     28725    |    52245
        3  | 11:36.46 |  5:33.33 |     52246    |    77253
        4  | 17:10.04 |  5:44.29 |     77254    |   103082
        5  | 22:54.33 |  4:11.33 |    103083    |   121940
        6  | 27:05.66 |  5:59.53 |    121941    |   148918
        7  | 33:05.44 |  4:53.18 |    148919    |   170911
        8  | 37:58.62 |  6:17.00 |    170912    |   199186
        9  | 44:15.62 |  5:06.06 |    199187    |   222142
       10  | 49:21.68 |  4:05.32 |    222143    |   240549
       11  | 53:27.25 |  5:34.19 |    240550    |   265618
       12  | 59:01.44 |  5:33.58 |    265619    |   290651
Range status and errors
Selected range
     Filename D:\Новая папка\C-Drone-Defect - Neural Dysorder Syndrome Redux CD1.wav
     Peak level 100.0 %
     Extraction speed 4.5 X
     Range quality 100.0 %
     Copy CRC D7C38A3A
     Copy OK
No errors occurred
AccurateRip summary
Track  1  accurately ripped (confidence 1)  [188A9B8D]  (AR v2)
Track  2  accurately ripped (confidence 1)  [3346C1DD]  (AR v2)
Track  3  accurately ripped (confidence 1)  [2E2DBD80]  (AR v2)
Track  4  accurately ripped (confidence 1)  [EDAEEF77]  (AR v2)
Track  5  accurately ripped (confidence 1)  [70413F23]  (AR v2)
Track  6  accurately ripped (confidence 1)  [73572C6B]  (AR v2)
Track  7  accurately ripped (confidence 1)  [25F6BC7E]  (AR v2)
Track  8  accurately ripped (confidence 1)  [914250E8]  (AR v2)
Track  9  accurately ripped (confidence 1)  [5B1610B1]  (AR v2)
Track 10  accurately ripped (confidence 1)  [A6FF5AA0]  (AR v2)
Track 11  accurately ripped (confidence 1)  [5E6FE305]  (AR v2)
Track 12  accurately ripped (confidence 1)  [8E93E710]  (AR v2)
All tracks accurately ripped
End of status report
==== Log checksum C49C6663E39D32DD5FD708D446181FABBE27797FD1E0EF245765CA91F1BBBE67 ====
Код:
Exact Audio Copy V1.0 beta 2 from 29. April 2011
EAC extraction logfile from 13. March 2012, 21:15
C-Drone-Defect / Neural Dysorder Syndrome Redux CD2
Used drive  : TSSTcorpCDDVDW SH-S203D   Adapter: 0  ID: 0
Read mode               : Secure
Utilize accurate stream : Yes
Defeat audio cache      : Yes
Make use of C2 pointers : No
Read offset correction                      : 6
Overread into Lead-In and Lead-Out          : No
Fill up missing offset samples with silence : Yes
Delete leading and trailing silent blocks   : No
Null samples used in CRC calculations       : Yes
Used interface                              : Native Win32 interface for Win NT & 2000
Used output format              : User Defined Encoder
Selected bitrate                : 1024 kBit/s
Quality                         : High
Add ID3 tag                     : No
Command line compressor         : C:\Program Files\Exact Audio Copy\FLAC\FLAC.EXE
Additional command line options : -8 -V -T "ARTIST=%artist%" -T "TITLE=%title%" -T "ALBUM=%albumtitle%" -T "DATE=%year%" -T "TRACKNUMBER=%tracknr%" -T "GENRE=%genre%" -T "COMMENT=%comment%" -T "BAND=%albuminterpret%" -T "COMPOSER=%composer%" %haslyrics%--ta
TOC of the extracted CD
     Track |   Start  |  Length  | Start sector | End sector
    ---------------------------------------------------------
        1  |  0:00.00 |  4:03.53 |         0    |    18277
        2  |  4:03.53 |  4:51.47 |     18278    |    40149
        3  |  8:55.25 |  5:04.03 |     40150    |    62952
        4  | 13:59.28 |  5:33.33 |     62953    |    87960
        5  | 19:32.61 |  4:45.54 |     87961    |   109389
        6  | 24:18.40 |  4:59.53 |    109390    |   131867
        7  | 29:18.18 |  4:28.54 |    131868    |   152021
        8  | 33:46.72 |  4:45.05 |    152022    |   173401
        9  | 38:32.02 |  5:12.14 |    173402    |   196815
       10  | 43:44.16 |  5:33.70 |    196816    |   221860
       11  | 49:18.11 |  4:34.49 |    221861    |   242459
       12  | 53:52.60 |  5:40.23 |    242460    |   267982
Range status and errors
Selected range
     Filename D:\Новая папка\C-Drone-Defect - Neural Dysorder Syndrome Redux CD2.wav
     Peak level 96.6 %
     Extraction speed 7.3 X
     Range quality 100.0 %
     Copy CRC 0683C341
     Copy OK
No errors occurred
AccurateRip summary
Track  1  accurately ripped (confidence 1)  [AC772E1E]  (AR v2)
Track  2  accurately ripped (confidence 1)  [B1C5DC1C]  (AR v2)
Track  3  accurately ripped (confidence 1)  [4CB70AC9]  (AR v2)
Track  4  accurately ripped (confidence 1)  [4C51E205]  (AR v2)
Track  5  accurately ripped (confidence 1)  [F9C6A5D8]  (AR v2)
Track  6  accurately ripped (confidence 1)  [B6F84D31]  (AR v2)
Track  7  accurately ripped (confidence 1)  [E1051B5F]  (AR v2)
Track  8  accurately ripped (confidence 1)  [08967C25]  (AR v2)
Track  9  accurately ripped (confidence 1)  [E92BBDA0]  (AR v2)
Track 10  accurately ripped (confidence 1)  [34FB799A]  (AR v2)
Track 11  accurately ripped (confidence 1)  [806C881E]  (AR v2)
Track 12  accurately ripped (confidence 1)  [D88812BE]  (AR v2)
All tracks accurately ripped
End of status report
==== Log checksum F6DB6F1DA17C897695947F9F1150B483DE0AFFADF4377FBFEA475441726B0248 ====
Правила, инструкции, FAQ!!!
Торрент  Добавлен [26 июн 2020, 16:56] Скачать торрент Магнет ссылка
Скачать торрент
[ Размер 18.57 КБ / Просмотров 4 ]

Статус
Проверен 
 
Размер  895.21 МБ
Приватный: Нет (DHT включён)
.torrent скачан  0
 


     Отправить личное сообщение
   
Страница 1 из 1
Показать сообщения за:  Поле сортировки  
Начать новую тему Ответить на тему


Сейчас этот форум просматривают: нет зарегистрированных пользователей и гости: 0


Вы не можете начинать темы
Вы не можете отвечать на сообщения
Вы не можете редактировать свои сообщения
Вы не можете удалять свои сообщения
Вы не можете добавлять вложения

Перейти:  
cron