Начать новую тему Ответить на тему
Статистика раздачи
Размер: 202.62 МБ | Добавлен: 26 июн 2020, 21:11 | Скачали: 0
Сидеров: 0  [0 байт/сек]    Личеров: 0  [0 байт/сек]
Пред. тема | След. тема 

Автор
Сообщение

СообщениеДобавлено: 26 июн 2020, 21:11 

Ответить с цитатой 

Das Reut - Arte De Ben Morire
Label: Divine Comedy Records
Catalog#: DC 037
Format: CD
Country: France
Released: 2004
Genre: Electronic
Style: Industrial, EBM, Dark Electro
Credits: Producer, Mixed By, Mastered By - Arnold pR , WoWa [bt]
Notes: Recorded in 2001-2002. Remixed & mastered in 2004 at MirkmoonSt. Voice recorded in summer 2002 at KostyaIvanovStudio.
Limited to 500 copies.
Продолжительность: 25:05
Tracklisting:
1 Between Reflections (5:10)
2 La Folie (5:30)
3 Evocatio (6:21)
4 Arte De Ben Morire (8:04)
Код:
Exact Audio Copy V0.99 prebeta 4 from 23. January 2008
EAC extraction logfile from 26. October 2008, 5:11
Das Reut / Arte De Ben Morire
Used drive  : _NEC    DVD_RW ND-3500AG   Adapter: 0  ID: 0
Read mode               : Secure
Utilize accurate stream : Yes
Defeat audio cache      : Yes
Make use of C2 pointers : No
Read offset correction                      : 48
Overread into Lead-In and Lead-Out          : No
Fill up missing offset samples with silence : Yes
Delete leading and trailing silent blocks   : No
Null samples used in CRC calculations       : Yes
Used interface                              : Native Win32 interface for Win NT & 2000
Gap handling                                : Appended to previous track
Used output format              : User Defined Encoder
Selected bitrate                : 768 kBit/s
Quality                         : High
Add ID3 tag                     : No
Command line compressor         : D:\Program Files\Exact Audio Copy\Flac\flac.exe
Additional command line options : -6 -V -T "ARTIST=%a" -T "TITLE=%t" -T "ALBUM=%g" -T "DATE=%y" -T "TRACKNUMBER=%n" -T "GENRE=%m" -T "COMMENT=%e" %s -o %d
TOC of the extracted CD
     Track |   Start  |  Length  | Start sector | End sector
    ---------------------------------------------------------
        1  |  0:00.00 |  5:09.72 |         0    |    23246
        2  |  5:09.72 |  5:29.71 |     23247    |    47992
        3  | 10:39.68 |  6:20.47 |     47993    |    76539
        4  | 17:00.40 |  8:04.13 |     76540    |   112852
Track  1
     Filename D:\Extraction\Das Reut - Arte De Ben Morire (2004)\01 - Between Reflections.wav
     Pre-gap length  0:00:02.00
     Peak level 96.5 %
     Track quality 100.0 %
     Test CRC 726D52DC
     Copy CRC 726D52DC
     Track not present in AccurateRip database
     Copy OK
Track  2
     Filename D:\Extraction\Das Reut - Arte De Ben Morire (2004)\02 - La Folie.wav
     Pre-gap length  0:00:02.00
     Peak level 96.5 %
     Track quality 100.0 %
     Test CRC 5409724A
     Copy CRC 5409724A
     Track not present in AccurateRip database
     Copy OK
Track  3
     Filename D:\Extraction\Das Reut - Arte De Ben Morire (2004)\03 - Evocatio.wav
     Pre-gap length  0:00:02.00
     Peak level 96.5 %
     Track quality 100.0 %
     Test CRC 430B3633
     Copy CRC 430B3633
     Track not present in AccurateRip database
     Copy OK
Track  4
     Filename D:\Extraction\Das Reut - Arte De Ben Morire (2004)\04 - Arte De Ben Morire.wav
     Pre-gap length  0:00:02.00
     Peak level 96.5 %
     Track quality 99.9 %
     Test CRC 8F257773
     Copy CRC 8F257773
     Track not present in AccurateRip database
     Copy OK
None of the tracks are present in the AccurateRip database
No errors occurred
End of status report
Правила, инструкции, FAQ!!!
Торрент  Добавлен [26 июн 2020, 21:11] Скачать торрент Магнет ссылка
Скачать торрент
[ Размер 16.99 КБ / Просмотров 9 ]

Статус
Проверен 
 
Размер  202.62 МБ
Приватный: Нет (DHT включён)
.torrent скачан  0
 


     Отправить личное сообщение
   
Страница 1 из 1
Показать сообщения за:  Поле сортировки  
Начать новую тему Ответить на тему


Сейчас этот форум просматривают: нет зарегистрированных пользователей и гости: 0


Вы не можете начинать темы
Вы не можете отвечать на сообщения
Вы не можете редактировать свои сообщения
Вы не можете удалять свои сообщения
Вы не можете добавлять вложения

Перейти:  
cron