Начать новую тему Ответить на тему
Статистика раздачи
Размер: 987.93 МБ | Добавлен: 26 июн 2020, 19:49 | Скачали: 0
Сидеров: 0  [0 байт/сек]    Личеров: 0  [0 байт/сек]
Пред. тема | След. тема 

Автор
Сообщение

СообщениеДобавлено: 26 июн 2020, 19:49 

Ответить с цитатой 

Suicide Commando / When Evil Speaks (Limited Edition) (2013)
Жанр: Industrial, EBM, Dark Electro, Aggrotech
Год издания: 2013
Издатель (лейбл): Out Of Line
Страна: Belgium
Аудиокодек: FLAC (*.flac)
Тип рипа: tracks+.cue
Битрейт аудио: lossless
Продолжительность: 02:07:59
Источник (релизер): What.CD
Наличие сканов в содержимом раздачи: Нет
Треклист:
CD 1: When Evil Speaks
01. Feeding My Inner Hate [00:01:33]
02. Cut_Bleed_Eviscerate [00:06:05]
03. My Blasphemy [00:04:16]
04. When Evil Speaks [00:04:53]
05. Monster [00:05:13]
06. Attention Whore [00:04:53]
07. Repent Or Perish [00:06:40]
08. In Guns We Trust [00:06:01]
09. Time (Rewind) [00:04:52]
10. Unterwelt [00:05:01]
11. Evacuate (Where‘s The Exit Remix) [00:04:47]
12. Song Of No Tomorrow [00:05:53]
Код:
Exact Audio Copy V1.0 beta 3 from 29. August 2011
EAC extraction logfile from 10. May 2013, 18:44
Suicide Commando / When Evil Speaks (Limited Edition)
Used drive  : PLEXTOR DVDR   PX-L890SA   Adapter: 1  ID: 0
Read mode               : Secure
Utilize accurate stream : Yes
Defeat audio cache      : Yes
Make use of C2 pointers : No
Read offset correction                      : 6
Overread into Lead-In and Lead-Out          : No
Fill up missing offset samples with silence : Yes
Delete leading and trailing silent blocks   : No
Null samples used in CRC calculations       : Yes
Used interface                              : Native Win32 interface for Win NT & 2000
Gap handling                                : Appended to previous track
Used output format              : User Defined Encoder
Selected bitrate                : 128 kBit/s
Quality                         : High
Add ID3 tag                     : No
Command line compressor         : C:\Program Files (x86)\Exact Audio Copy\Flac\flac.exe
Additional command line options : -8 -V -T "ARTIST=%artist%" -T "TITLE=%title%" -T "ALBUM=%albumtitle%" -T "DATE=%year%" -T "TRACKNUMBER=%tracknr%" -T "GENRE=%genre%" -T "PERFORMER=%albuminterpret%" -T "COMPOSER=%composer%" %haslyrics%--tag-from-file=LYRICS="%lyricsfile%"%haslyrics% -T "ALBUMARTIST=%albumartist%" -T "DISCNUMBER=%cdnumber%" -T "TOTALDISCS=%totalcds%" -T "TOTALTRACKS=%numtracks%" -T "COMMENT=%comment%" %source% -o %dest%
TOC of the extracted CD
     Track |   Start  |  Length  | Start sector | End sector
    ---------------------------------------------------------
        1  |  0:00.00 |  1:33.49 |         0    |     7023
        2  |  1:33.49 |  6:05.01 |      7024    |    34399
        3  |  7:38.50 |  4:16.01 |     34400    |    53600
        4  | 11:54.51 |  4:53.25 |     53601    |    75600
        5  | 16:48.01 |  5:13.23 |     75601    |    99098
        6  | 22:01.24 |  4:53.54 |     99099    |   121127
        7  | 26:55.03 |  6:40.06 |    121128    |   151133
        8  | 33:35.09 |  6:01.28 |    151134    |   178236
        9  | 39:36.37 |  4:52.57 |    178237    |   200193
       10  | 44:29.19 |  5:01.08 |    200194    |   222776
       11  | 49:30.27 |  4:47.18 |    222777    |   244319
       12  | 54:17.45 |  5:53.30 |    244320    |   270824
Track  1
     Filename D:\Uploads\uTorrent\What.CD\Suicide Commando - When Evil Speaks (Limited Edition) (2013) - FLAC\01 - Feeding My Inner Hate.wav
     Pre-gap length  0:00:02.00
     Peak level 97.7 %
     Extraction speed 2.8 X
     Track quality 100.0 %
     Test CRC 3D9D9F17
     Copy CRC 3D9D9F17
     Track not present in AccurateRip database
     Copy OK
Track  2
     Filename D:\Uploads\uTorrent\What.CD\Suicide Commando - When Evil Speaks (Limited Edition) (2013) - FLAC\02 - Cut_Bleed_Eviscerate.wav
     Peak level 97.7 %
     Extraction speed 4.0 X
     Track quality 100.0 %
     Test CRC B7D4F583
     Copy CRC B7D4F583
     Track not present in AccurateRip database
     Copy OK
Track  3
     Filename D:\Uploads\uTorrent\What.CD\Suicide Commando - When Evil Speaks (Limited Edition) (2013) - FLAC\03 - My Blasphemy.wav
     Pre-gap length  0:00:02.00
     Peak level 97.7 %
     Extraction speed 4.3 X
     Track quality 100.0 %
     Test CRC AFFDF010
     Copy CRC AFFDF010
     Track not present in AccurateRip database
     Copy OK
Track  4
     Filename D:\Uploads\uTorrent\What.CD\Suicide Commando - When Evil Speaks (Limited Edition) (2013) - FLAC\04 - When Evil Speaks.wav
     Pre-gap length  0:00:02.00
     Peak level 97.7 %
     Extraction speed 4.7 X
     Track quality 100.0 %
     Test CRC D6122C29
     Copy CRC D6122C29
     Track not present in AccurateRip database
     Copy OK
Track  5
     Filename D:\Uploads\uTorrent\What.CD\Suicide Commando - When Evil Speaks (Limited Edition) (2013) - FLAC\05 - Monster.wav
     Pre-gap length  0:00:02.00
     Peak level 97.7 %
     Extraction speed 5.1 X
     Track quality 100.0 %
     Test CRC B3A7BA3D
     Copy CRC B3A7BA3D
     Track not present in AccurateRip database
     Copy OK
Track  6
     Filename D:\Uploads\uTorrent\What.CD\Suicide Commando - When Evil Speaks (Limited Edition) (2013) - FLAC\06 - Attention Whore.wav
     Pre-gap length  0:00:02.00
     Peak level 97.7 %
     Extraction speed 5.4 X
     Track quality 100.0 %
     Test CRC BFDC591A
     Copy CRC BFDC591A
     Track not present in AccurateRip database
     Copy OK
Track  7
     Filename D:\Uploads\uTorrent\What.CD\Suicide Commando - When Evil Speaks (Limited Edition) (2013) - FLAC\07 - Repent or Perish.wav
     Pre-gap length  0:00:02.00
     Peak level 97.7 %
     Extraction speed 6.0 X
     Track quality 100.0 %
     Test CRC 1632E23D
     Copy CRC 1632E23D
     Track not present in AccurateRip database
     Copy OK
Track  8
     Filename D:\Uploads\uTorrent\What.CD\Suicide Commando - When Evil Speaks (Limited Edition) (2013) - FLAC\08 - In Guns We Trust.wav
     Pre-gap length  0:00:02.00
     Peak level 97.7 %
     Extraction speed 6.4 X
     Track quality 100.0 %
     Test CRC 8A257761
     Copy CRC 8A257761
     Track not present in AccurateRip database
     Copy OK
Track  9
     Filename D:\Uploads\uTorrent\What.CD\Suicide Commando - When Evil Speaks (Limited Edition) (2013) - FLAC\09 - Time (Rewind).wav
     Pre-gap length  0:00:02.00
     Peak level 98.0 %
     Extraction speed 6.5 X
     Track quality 100.0 %
     Test CRC BC9EC23B
     Copy CRC BC9EC23B
     Track not present in AccurateRip database
     Copy OK
Track 10
     Filename D:\Uploads\uTorrent\What.CD\Suicide Commando - When Evil Speaks (Limited Edition) (2013) - FLAC\10 - Unterwelt.wav
     Pre-gap length  0:00:02.00
     Peak level 96.8 %
     Extraction speed 5.6 X
     Track quality 99.9 %
     Test CRC B0702CD8
     Copy CRC B0702CD8
     Track not present in AccurateRip database
     Copy OK
Track 11
     Filename D:\Uploads\uTorrent\What.CD\Suicide Commando - When Evil Speaks (Limited Edition) (2013) - FLAC\11 - Evacuate (Where's The Exit Remix).wav
     Pre-gap length  0:00:02.00
     Peak level 97.7 %
     Extraction speed 7.0 X
     Track quality 100.0 %
     Test CRC 2ECD8BB2
     Copy CRC 2ECD8BB2
     Track not present in AccurateRip database
     Copy OK
Track 12
     Filename D:\Uploads\uTorrent\What.CD\Suicide Commando - When Evil Speaks (Limited Edition) (2013) - FLAC\12 - Song of No Tomorrow.wav
     Pre-gap length  0:00:02.00
     Peak level 97.7 %
     Extraction speed 7.5 X
     Track quality 100.0 %
     Test CRC DF514D5C
     Copy CRC DF514D5C
     Track not present in AccurateRip database
     Copy OK
None of the tracks are present in the AccurateRip database
No errors occurred
End of status report
==== Log checksum 29E83A139D3EC6F6C25D1B7514993CE62201BE30593833FA72C0C85DD67EE765 ====
Код:
REM GENRE Industrial
REM DATE 2013
REM DISCID 970E1B0C
REM COMMENT "ExactAudioCopy v1.0b3"
PERFORMER "Suicide Commando"
TITLE "When Evil Speaks (Limited Edition)"
FILE "01 - Feeding My Inner Hate.wav" WAVE
  TRACK 01 AUDIO
    TITLE "Feeding My Inner Hate"
    PERFORMER "Suicide Commando"
    INDEX 01 00:00:00
FILE "02 - Cut_Bleed_Eviscerate.wav" WAVE
  TRACK 02 AUDIO
    TITLE "Cut_Bleed_Eviscerate"
    PERFORMER "Suicide Commando"
    INDEX 01 00:00:00
  TRACK 03 AUDIO
    TITLE "My Blasphemy"
    PERFORMER "Suicide Commando"
    INDEX 00 06:03:01
FILE "03 - My Blasphemy.wav" WAVE
    INDEX 01 00:00:00
  TRACK 04 AUDIO
    TITLE "When Evil Speaks"
    PERFORMER "Suicide Commando"
    INDEX 00 04:14:01
FILE "04 - When Evil Speaks.wav" WAVE
    INDEX 01 00:00:00
  TRACK 05 AUDIO
    TITLE "Monster"
    PERFORMER "Suicide Commando"
    INDEX 00 04:51:25
FILE "05 - Monster.wav" WAVE
    INDEX 01 00:00:00
  TRACK 06 AUDIO
    TITLE "Attention Whore"
    PERFORMER "Suicide Commando"
    INDEX 00 05:11:23
FILE "06 - Attention Whore.wav" WAVE
    INDEX 01 00:00:00
  TRACK 07 AUDIO
    TITLE "Repent or Perish"
    PERFORMER "Suicide Commando"
    INDEX 00 04:51:54
FILE "07 - Repent or Perish.wav" WAVE
    INDEX 01 00:00:00
  TRACK 08 AUDIO
    TITLE "In Guns We Trust"
    PERFORMER "Suicide Commando"
    INDEX 00 06:38:06
FILE "08 - In Guns We Trust.wav" WAVE
    INDEX 01 00:00:00
  TRACK 09 AUDIO
    TITLE "Time (Rewind)"
    PERFORMER "Suicide Commando"
    INDEX 00 05:59:28
FILE "09 - Time (Rewind).wav" WAVE
    INDEX 01 00:00:00
  TRACK 10 AUDIO
    TITLE "Unterwelt"
    PERFORMER "Suicide Commando"
    INDEX 00 04:50:57
FILE "10 - Unterwelt.wav" WAVE
    INDEX 01 00:00:00
  TRACK 11 AUDIO
    TITLE "Evacuate (Where's The Exit Remix)"
    PERFORMER "Suicide Commando"
    INDEX 00 04:59:08
FILE "11 - Evacuate (Where's The Exit Remix).wav" WAVE
    INDEX 01 00:00:00
  TRACK 12 AUDIO
    TITLE "Song of No Tomorrow"
    PERFORMER "Suicide Commando"
    INDEX 00 04:45:18
FILE "12 - Song of No Tomorrow.wav" WAVE
    INDEX 01 00:00:00
CD 2: When Hate Prevails
01. My Blasphemy (Die Sektor Remix) [00:06:13]
02. Attention Whore (Incestuous Remix By Alien Vampires) [00:04:15]
03. When Evil Speaks (Shiv-R Remix) [00:04:50]
04. My Blasphemy (Absolute Body Control Remix) [00:05:34]
05. Repent or Perish (vProjekt Remix) [00:06:45]
06. When Evil Speaks (SIN D.N.A. Remix) [00:04:42]
07. My Blasphemy (Dust Remix By ES23) [00:04:14]
08. Evacuate (Apocalyptica Remix By Betamorphose) [00:03:58]
09. Attention Whore (Hydra Division V Remix) [00:03:55]
10. Monster (Unter Null Remix) [00:04:19]
11. My Blasphemy (Cygnosic Remix) [00:04:31]
12. God Is In The Rain (First Black Pope Remix) [00:04:18]
13. Attention Whore (Nano Infect Remix) [00:05:13]
14. Song Of No Tomorrow (Controlled Collapse Remix) [00:04:54]
Код:
Exact Audio Copy V1.0 beta 3 from 29. August 2011
EAC extraction logfile from 10. May 2013, 19:18
Suicide Commando / When Evil Speaks (Limited Edition)
Used drive  : PLEXTOR DVDR   PX-L890SA   Adapter: 1  ID: 0
Read mode               : Secure
Utilize accurate stream : Yes
Defeat audio cache      : Yes
Make use of C2 pointers : No
Read offset correction                      : 6
Overread into Lead-In and Lead-Out          : No
Fill up missing offset samples with silence : Yes
Delete leading and trailing silent blocks   : No
Null samples used in CRC calculations       : Yes
Used interface                              : Native Win32 interface for Win NT & 2000
Gap handling                                : Appended to previous track
Used output format              : User Defined Encoder
Selected bitrate                : 128 kBit/s
Quality                         : High
Add ID3 tag                     : No
Command line compressor         : C:\Program Files (x86)\Exact Audio Copy\Flac\flac.exe
Additional command line options : -8 -V -T "ARTIST=%artist%" -T "TITLE=%title%" -T "ALBUM=%albumtitle%" -T "DATE=%year%" -T "TRACKNUMBER=%tracknr%" -T "GENRE=%genre%" -T "PERFORMER=%albuminterpret%" -T "COMPOSER=%composer%" %haslyrics%--tag-from-file=LYRICS="%lyricsfile%"%haslyrics% -T "ALBUMARTIST=%albumartist%" -T "DISCNUMBER=%cdnumber%" -T "TOTALDISCS=%totalcds%" -T "TOTALTRACKS=%numtracks%" -T "COMMENT=%comment%" %source% -o %dest%
TOC of the extracted CD
     Track |   Start  |  Length  | Start sector | End sector
    ---------------------------------------------------------
        1  |  0:00.00 |  6:13.38 |         0    |    28012
        2  |  6:13.38 |  4:15.59 |     28013    |    47196
        3  | 10:29.22 |  4:50.68 |     47197    |    69014
        4  | 15:20.15 |  5:34.20 |     69015    |    94084
        5  | 20:54.35 |  6:44.72 |     94085    |   124456
        6  | 27:39.32 |  4:42.26 |    124457    |   145632
        7  | 32:21.58 |  4:14.62 |    145633    |   164744
        8  | 36:36.45 |  3:58.30 |    164745    |   182624
        9  | 40:35.00 |  3:55.13 |    182625    |   200262
       10  | 44:30.13 |  4:19.15 |    200263    |   219702
       11  | 48:49.28 |  4:31.62 |    219703    |   240089
       12  | 53:21.15 |  4:18.40 |    240090    |   259479
       13  | 57:39.55 |  5:13.35 |    259480    |   282989
       14  | 62:53.15 |  4:54.60 |    282990    |   305099
Track  1
     Filename D:\Uploads\uTorrent\What.CD\Suicide Commando - When Evil Speaks (Limited Edition) (2013) - FLAC\01 - My Blasphemy (Die Sektor Remix).wav
     Pre-gap length  0:00:02.00
     Peak level 97.1 %
     Extraction speed 3.7 X
     Track quality 99.9 %
     Test CRC C88F7F1A
     Copy CRC C88F7F1A
     Track not present in AccurateRip database
     Copy OK
Track  2
     Filename D:\Uploads\uTorrent\What.CD\Suicide Commando - When Evil Speaks (Limited Edition) (2013) - FLAC\02 - Attention Whore (Incestuos Remix by Alien Vampires).wav
     Pre-gap length  0:00:02.00
     Peak level 97.1 %
     Extraction speed 4.5 X
     Track quality 100.0 %
     Test CRC 298361CA
     Copy CRC 298361CA
     Track not present in AccurateRip database
     Copy OK
Track  3
     Filename D:\Uploads\uTorrent\What.CD\Suicide Commando - When Evil Speaks (Limited Edition) (2013) - FLAC\03 - When Evil Speaks (Shiv-R Remix).wav
     Pre-gap length  0:00:02.00
     Peak level 97.1 %
     Extraction speed 5.0 X
     Track quality 100.0 %
     Test CRC 243CDF25
     Copy CRC 243CDF25
     Track not present in AccurateRip database
     Copy OK
Track  4
     Filename D:\Uploads\uTorrent\What.CD\Suicide Commando - When Evil Speaks (Limited Edition) (2013) - FLAC\04 - My Blasphemy (Absolute Body Control Remix).wav
     Pre-gap length  0:00:02.00
     Peak level 96.9 %
     Extraction speed 5.4 X
     Track quality 100.0 %
     Test CRC 3E075318
     Copy CRC 3E075318
     Track not present in AccurateRip database
     Copy OK
Track  5
     Filename D:\Uploads\uTorrent\What.CD\Suicide Commando - When Evil Speaks (Limited Edition) (2013) - FLAC\05 - Repent or Perish (vProjekt Remix).wav
     Pre-gap length  0:00:02.00
     Peak level 97.1 %
     Extraction speed 6.0 X
     Track quality 100.0 %
     Test CRC 61906A8F
     Copy CRC 61906A8F
     Track not present in AccurateRip database
     Copy OK
Track  6
     Filename D:\Uploads\uTorrent\What.CD\Suicide Commando - When Evil Speaks (Limited Edition) (2013) - FLAC\06 - When Evil Speaks (Sin Dna Remix).wav
     Pre-gap length  0:00:02.00
     Peak level 97.1 %
     Extraction speed 6.1 X
     Track quality 100.0 %
     Test CRC 19E5144B
     Copy CRC 19E5144B
     Track not present in AccurateRip database
     Copy OK
Track  7
     Filename D:\Uploads\uTorrent\What.CD\Suicide Commando - When Evil Speaks (Limited Edition) (2013) - FLAC\07 - My Blasphemy (Dust Remix by ES23).wav
     Pre-gap length  0:00:02.00
     Peak level 97.1 %
     Extraction speed 6.3 X
     Track quality 100.0 %
     Test CRC 74C8ADF6
     Copy CRC 74C8ADF6
     Track not present in AccurateRip database
     Copy OK
Track  8
     Filename D:\Uploads\uTorrent\What.CD\Suicide Commando - When Evil Speaks (Limited Edition) (2013) - FLAC\08 - Evacuate (Apocalyptica Remix by Betamorphose).wav
     Pre-gap length  0:00:02.00
     Peak level 97.1 %
     Extraction speed 5.2 X
     Track quality 99.9 %
     Test CRC C9A2F6B9
     Copy CRC C9A2F6B9
     Track not present in AccurateRip database
     Copy OK
Track  9
     Filename D:\Uploads\uTorrent\What.CD\Suicide Commando - When Evil Speaks (Limited Edition) (2013) - FLAC\09 - Attention Whore (Hydra Division V Remix).wav
     Pre-gap length  0:00:02.00
     Peak level 98.1 %
     Extraction speed 6.7 X
     Track quality 100.0 %
     Test CRC B6E5235B
     Copy CRC B6E5235B
     Track not present in AccurateRip database
     Copy OK
Track 10
     Filename D:\Uploads\uTorrent\What.CD\Suicide Commando - When Evil Speaks (Limited Edition) (2013) - FLAC\10 - Monster (Unter Null Remix).wav
     Pre-gap length  0:00:02.00
     Peak level 97.1 %
     Extraction speed 7.0 X
     Track quality 100.0 %
     Test CRC 1D8E6B35
     Copy CRC 1D8E6B35
     Track not present in AccurateRip database
     Copy OK
Track 11
     Filename D:\Uploads\uTorrent\What.CD\Suicide Commando - When Evil Speaks (Limited Edition) (2013) - FLAC\11 - My Blasphemy (Cygnosic Remix).wav
     Pre-gap length  0:00:02.00
     Peak level 97.1 %
     Extraction speed 7.3 X
     Track quality 100.0 %
     Test CRC 1B0F27D8
     Copy CRC 1B0F27D8
     Track not present in AccurateRip database
     Copy OK
Track 12
     Filename D:\Uploads\uTorrent\What.CD\Suicide Commando - When Evil Speaks (Limited Edition) (2013) - FLAC\12 - God Is in the Rain (First Black Pope Remix).wav
     Pre-gap length  0:00:02.00
     Peak level 97.1 %
     Extraction speed 7.4 X
     Track quality 100.0 %
     Test CRC 5A5B9630
     Copy CRC 5A5B9630
     Track not present in AccurateRip database
     Copy OK
Track 13
     Filename D:\Uploads\uTorrent\What.CD\Suicide Commando - When Evil Speaks (Limited Edition) (2013) - FLAC\13 - Attention Whore (Nano Infect Remix).wav
     Pre-gap length  0:00:02.00
     Peak level 97.1 %
     Extraction speed 7.8 X
     Track quality 100.0 %
     Test CRC 478DF0B8
     Copy CRC 478DF0B8
     Track not present in AccurateRip database
     Copy OK
Track 14
     Filename D:\Uploads\uTorrent\What.CD\Suicide Commando - When Evil Speaks (Limited Edition) (2013) - FLAC\14 - Song of No Tomorrow (Controlled Collapse Remix).wav
     Pre-gap length  0:00:02.00
     Peak level 97.1 %
     Extraction speed 6.6 X
     Track quality 99.9 %
     Test CRC 17566FE4
     Copy CRC 17566FE4
     Track not present in AccurateRip database
     Copy OK
None of the tracks are present in the AccurateRip database
No errors occurred
End of status report
==== Log checksum EA1AEEBA5F4119EFE55E37BA6E63CBF56B3272A2C08FA9475A70B328C6920956 ====
Код:
REM GENRE Industrial
REM DATE 2013
REM DISCID C50FE40E
REM COMMENT "ExactAudioCopy v1.0b3"
PERFORMER "Suicide Commando"
TITLE "When Evil Speaks (Limited Edition)"
FILE "01 - My Blasphemy (Die Sektor Remix).wav" WAVE
  TRACK 01 AUDIO
    TITLE "My Blasphemy (Die Sektor Remix)"
    PERFORMER "Suicide Commando"
    INDEX 01 00:00:00
  TRACK 02 AUDIO
    TITLE "Attention Whore (Incestuos Remix by Alien Vampires)"
    PERFORMER "Suicide Commando"
    INDEX 00 06:11:38
FILE "02 - Attention Whore (Incestuos Remix by Alien Vampires).wav" WAVE
    INDEX 01 00:00:00
  TRACK 03 AUDIO
    TITLE "When Evil Speaks (Shiv-R Remix)"
    PERFORMER "Suicide Commando"
    INDEX 00 04:13:59
FILE "03 - When Evil Speaks (Shiv-R Remix).wav" WAVE
    INDEX 01 00:00:00
  TRACK 04 AUDIO
    TITLE "My Blasphemy (Absolute Body Control Remix)"
    PERFORMER "Suicide Commando"
    INDEX 00 04:48:68
FILE "04 - My Blasphemy (Absolute Body Control Remix).wav" WAVE
    INDEX 01 00:00:00
  TRACK 05 AUDIO
    TITLE "Repent or Perish (vProjekt Remix)"
    PERFORMER "Suicide Commando"
    INDEX 00 05:32:20
FILE "05 - Repent or Perish (vProjekt Remix).wav" WAVE
    INDEX 01 00:00:00
  TRACK 06 AUDIO
    TITLE "When Evil Speaks (Sin Dna Remix)"
    PERFORMER "Suicide Commando"
    INDEX 00 06:42:72
FILE "06 - When Evil Speaks (Sin Dna Remix).wav" WAVE
    INDEX 01 00:00:00
  TRACK 07 AUDIO
    TITLE "My Blasphemy (Dust Remix by ES23)"
    PERFORMER "Suicide Commando"
    INDEX 00 04:40:26
FILE "07 - My Blasphemy (Dust Remix by ES23).wav" WAVE
    INDEX 01 00:00:00
  TRACK 08 AUDIO
    TITLE "Evacuate (Apocalyptica Remix by Betamorphose)"
    PERFORMER "Suicide Commando"
    INDEX 00 04:12:62
FILE "08 - Evacuate (Apocalyptica Remix by Betamorphose).wav" WAVE
    INDEX 01 00:00:00
  TRACK 09 AUDIO
    TITLE "Attention Whore (Hydra Division V Remix)"
    PERFORMER "Suicide Commando"
    INDEX 00 03:56:30
FILE "09 - Attention Whore (Hydra Division V Remix).wav" WAVE
    INDEX 01 00:00:00
  TRACK 10 AUDIO
    TITLE "Monster (Unter Null Remix)"
    PERFORMER "Suicide Commando"
    INDEX 00 03:53:13
FILE "10 - Monster (Unter Null Remix).wav" WAVE
    INDEX 01 00:00:00
  TRACK 11 AUDIO
    TITLE "My Blasphemy (Cygnosic Remix)"
    PERFORMER "Suicide Commando"
    INDEX 00 04:17:15
FILE "11 - My Blasphemy (Cygnosic Remix).wav" WAVE
    INDEX 01 00:00:00
  TRACK 12 AUDIO
    TITLE "God Is in the Rain (First Black Pope Remix)"
    PERFORMER "Suicide Commando"
    INDEX 00 04:29:62
FILE "12 - God Is in the Rain (First Black Pope Remix).wav" WAVE
    INDEX 01 00:00:00
  TRACK 13 AUDIO
    TITLE "Attention Whore (Nano Infect Remix)"
    PERFORMER "Suicide Commando"
    INDEX 00 04:16:40
FILE "13 - Attention Whore (Nano Infect Remix).wav" WAVE
    INDEX 01 00:00:00
  TRACK 14 AUDIO
    TITLE "Song of No Tomorrow (Controlled Collapse Remix)"
    PERFORMER "Suicide Commando"
    INDEX 00 05:11:35
FILE "14 - Song of No Tomorrow (Controlled Collapse Remix).wav" WAVE
    INDEX 01 00:00:00
Правила, инструкции, FAQ!!!
Торрент  Добавлен [26 июн 2020, 19:49] Скачать торрент Магнет ссылка
Скачать торрент
[ Размер 22.66 КБ / Просмотров 8 ]

Статус
Проверен 
 
Размер  987.93 МБ
Приватный: Нет (DHT включён)
.torrent скачан  0
 


     Отправить личное сообщение
   
Страница 1 из 1
Показать сообщения за:  Поле сортировки  
Начать новую тему Ответить на тему


Сейчас этот форум просматривают: нет зарегистрированных пользователей и гости: 0


Вы не можете начинать темы
Вы не можете отвечать на сообщения
Вы не можете редактировать свои сообщения
Вы не можете удалять свои сообщения
Вы не можете добавлять вложения

Перейти:  
cron