Начать новую тему Ответить на тему
Статистика раздачи
Размер: 314 МБ | Добавлен: 26 июн 2020, 20:49 | Скачали: 0
Сидеров: 0  [0 байт/сек]    Личеров: 0  [0 байт/сек]
Пред. тема | След. тема 

Автор
Сообщение

СообщениеДобавлено: 26 июн 2020, 20:49 

Ответить с цитатой 

Suicide Commando / Mindstrip (2000)
Жанр: Industrial, EBM, Dark Electro, Aggrotech
Страна-производитель диска: Germany
Год издания: 2000
Издатель (лейбл): Dependent Records
Страна: Belgium
Аудиокодек: FLAC (*.flac)
Тип рипа: image+.cue
Битрейт аудио: lossless
Продолжительность: 00:49:54
Источник (релизер): Собственный рип диска
Наличие сканов в содержимом раздачи: Нет
Треклист:
01. Jesus Wept [00:05:59]
02. Hell Raiser (Psychopath 01-Version) [00:05:01]
03. Body Count Proceed [00:05:37]
04. Raise Your God [00:04:07]
05. Mind Stripper [00:04:31]
06. Run [00:03:41]
07. Comatose Delusion (Overdose Shot Two) [00:05:12]
08. Blood In Face [00:04:47]
09. Love Breeds Suicide [00:05:16]
10. Slaves [00:05:41]
Код:
Exact Audio Copy V1.0 beta 3 from 29. August 2011
EAC extraction logfile from 22. August 2013, 16:20
Suicide Commando / Mindstrip
Used drive  : MATSHITADVD-RAM UJ-850S   Adapter: 2  ID: 0
Read mode               : Secure
Utilize accurate stream : Yes
Defeat audio cache      : Yes
Make use of C2 pointers : No
Read offset correction                      : 102
Overread into Lead-In and Lead-Out          : No
Fill up missing offset samples with silence : Yes
Delete leading and trailing silent blocks   : No
Null samples used in CRC calculations       : Yes
Used interface                              : Native Win32 interface for Win NT & 2000
Used output format              : User Defined Encoder
Selected bitrate                : 128 kBit/s
Quality                         : High
Add ID3 tag                     : No
Command line compressor         : C:\Program Files\foobar2000\codecs\FLAC_1.3.0\flac-1.3.0-icl\flac.exe
Additional command line options : -V -8 %source%
TOC of the extracted CD
     Track |   Start  |  Length  | Start sector | End sector
    ---------------------------------------------------------
        1  |  0:00.00 |  5:59.24 |         0    |    26948
        2  |  5:59.24 |  5:01.06 |     26949    |    49529
        3  | 11:00.30 |  5:37.16 |     49530    |    74820
        4  | 16:37.46 |  4:07.02 |     74821    |    93347
        5  | 20:44.48 |  4:31.35 |     93348    |   113707
        6  | 25:16.08 |  3:41.34 |    113708    |   130316
        7  | 28:57.42 |  5:12.17 |    130317    |   153733
        8  | 34:09.59 |  4:47.18 |    153734    |   175276
        9  | 38:57.02 |  5:16.37 |    175277    |   199013
       10  | 44:13.39 |  5:40.38 |    199014    |   224551
Range status and errors
Selected range
     Filename D:\EAC Temp\Suicide Commando - Mindstrip.wav
     Peak level 100.0 %
     Extraction speed 2.4 X
     Range quality 100.0 %
     Test CRC 31FB407E
     Copy CRC 31FB407E
     Copy OK
No errors occurred
End of status report
==== Log checksum FB90B182E380BF627D4D0FA9ED7883127C6B1069BDC3CE3931FD3999ABED1645 ====
Код:
REM GENRE Electronic
REM DATE 2000
REM DISCID 900BB20A
REM COMMENT "ExactAudioCopy v1.0b3"
PERFORMER "Suicide Commando"
TITLE "Mindstrip"
FILE "Suicide Commando - Mindstrip.flac" WAVE
  TRACK 01 AUDIO
    TITLE "Jesus Wept"
    PERFORMER "Suicide Commando"
    INDEX 01 00:00:00
  TRACK 02 AUDIO
    TITLE "Hell Raiser (Psychopath 01-Version)"
    PERFORMER "Suicide Commando"
    INDEX 01 05:59:24
  TRACK 03 AUDIO
    TITLE "Body Count Proceed"
    PERFORMER "Suicide Commando"
    INDEX 01 11:00:30
  TRACK 04 AUDIO
    TITLE "Raise Your God"
    PERFORMER "Suicide Commando"
    INDEX 01 16:37:46
  TRACK 05 AUDIO
    TITLE "Mind Stripper"
    PERFORMER "Suicide Commando"
    INDEX 01 20:44:48
  TRACK 06 AUDIO
    TITLE "Run"
    PERFORMER "Suicide Commando"
    INDEX 01 25:16:08
  TRACK 07 AUDIO
    TITLE "Comatose Delusion (Overdose Shot Two)"
    PERFORMER "Suicide Commando"
    INDEX 01 28:57:42
  TRACK 08 AUDIO
    TITLE "Blood In Face"
    PERFORMER "Suicide Commando"
    INDEX 01 34:09:59
  TRACK 09 AUDIO
    TITLE "Love Breeds Suicide"
    PERFORMER "Suicide Commando"
    INDEX 01 38:57:02
  TRACK 10 AUDIO
    TITLE "Slaves"
    PERFORMER "Suicide Commando"
    INDEX 01 44:13:39
Код:
AUDIOCHECKER v2.0 beta (build 457) - by Dester - opdester@freemail.hu
~~~~~~~~~~~~~~~~~~~~~~~~~~~~~~~~~~
-=== DO NOT EDIT THIS FILE! ===-
Path: ...\EAC Temp
1 -=- Suicide Commando - Mindstrip.flac -=- CDDA (100%)
77026852
Правила, инструкции, FAQ!!!
Торрент  Добавлен [26 июн 2020, 20:49] Скачать торрент Магнет ссылка
Скачать торрент
[ Размер 13.23 КБ / Просмотров 7 ]

Статус
Проверен 
 
Размер  314 МБ
Приватный: Нет (DHT включён)
.torrent скачан  0
 


     Отправить личное сообщение
   
Страница 1 из 1
Показать сообщения за:  Поле сортировки  
Начать новую тему Ответить на тему


Сейчас этот форум просматривают: нет зарегистрированных пользователей и гости: 0


Вы не можете начинать темы
Вы не можете отвечать на сообщения
Вы не можете редактировать свои сообщения
Вы не можете удалять свои сообщения
Вы не можете добавлять вложения

Перейти:  
cron