Начать новую тему Ответить на тему
Статистика раздачи
Размер: 322.16 МБ | Добавлен: 26 июн 2020, 20:16 | Скачали: 0
Сидеров: 0  [0 байт/сек]    Личеров: 0  [0 байт/сек]
Пред. тема | След. тема 

Автор
Сообщение

СообщениеДобавлено: 26 июн 2020, 20:16 

Ответить с цитатой 

Autodafeh - Act Of Faith
Жанр: Industrial / EBM
Год издания диска: 2011
Издатель (лейбл): Scanner Records
Страна: Sweden
Аудиокодек: FLAC (*.flac)
Тип рипа: tracks+.cue
Битрейт аудио: lossless
Продолжительность: 46:34
Источник: g3rider (what.cd)
Наличие сканов в содержимом раздачи: нет

Треклист:
01. Heaven Screams (3:53)
02. Killer (5:07)
03. Land Of Nothing (2:46)
04. Reality Shock (4:11)
05. Make Us Believe (3:50)
06. Watch Out (3:37)
07. Treasure Hunt (3:37)
08. Wheel Of Faith (4:00)
09. Promises (3:38)
10. Camp Intel (4:08)
11. Fuel Of Fire 2011 (3:50)
12. Divided We Fall 2011 (3:54)
За несколько лет своего существования трио из Швеции AUTODAFEH успело покорить поклонников электронной сцены своей не лишённой индивидуальности музыкой с тяжёлыми EBM ритмами и блестящими текстами песен. Будучи вдохновлёнными такими классиками жанра как Front 242 и Nitzer Ebb, музыканты за это время выпустили два полноформатных альбома и уже готовы представить на суд публики свою третью студийную работу "Act of Faith".
Код:
X Lossless Decoder version 20110821 (136.1)
XLD extraction logfile from 2011-09-17 08:57:33 +0000
Autodafeh / Act Of Faith
Used drive : YAMAHA CRW-F1E (revision 1.0g)
Ripper mode             : XLD Secure Ripper
Disable audio cache     : OK for the drive with a cache less than 1375KiB
Make use of C2 pointers : NO
Read offset correction  : 733
Max retry count         : 100
Gap status              : Analyzed, Appended
TOC of the extracted CD
     Track |   Start  |  Length  | Start sector | End sector
    ---------------------------------------------------------
        1  | 00:00:00 | 03:53:37 |         0    |    17511
        2  | 03:53:37 | 05:07:34 |     17512    |    40570
        3  | 09:00:71 | 02:45:38 |     40571    |    52983
        4  | 11:46:34 | 04:11:00 |     52984    |    71808
        5  | 15:57:34 | 03:50:36 |     71809    |    89094
        6  | 19:47:70 | 03:37:37 |     89095    |   105406
        7  | 23:25:32 | 03:37:17 |    105407    |   121698
        8  | 27:02:49 | 04:00:37 |    121699    |   139735
        9  | 31:03:11 | 03:38:35 |    139736    |   156120
       10  | 34:41:46 | 04:08:36 |    156121    |   174756
       11  | 38:50:07 | 03:49:53 |    174757    |   191984
       12  | 42:39:60 | 03:54:31 |    191985    |   209565
AccurateRip Summary
    Disc not found in AccurateRip DB.
All Tracks
    Album gain             : -7.46 dB
    Peak                   : 0.995087
    Statistics
        Read error                           : 0
        Jitter error (maybe fixed)           : 0
        Retry sector count                   : 0
        Damaged sector count                 : 0
Track 01
    Filename : /Volumes/HD 2/Autodafeh - 2011 - Act of Faith/01 - Autodafeh - 2011 - Heaven Screams.flac
    Pre-gap length : 00:02:00
    Track gain             : -6.98 dB
    Peak                   : 0.994385
    CRC32 hash (test run)  : 61DDE938
    CRC32 hash             : 61DDE938
    CRC32 hash (skip zero) : C9D8C811
    AccurateRip signature  : 360C7492
        ->Track not present in AccurateRip database.
    Statistics
        Read error                           : 0
        Jitter error (maybe fixed)           : 0
        Retry sector count                   : 0
        Damaged sector count                 : 0
Track 02
    Filename : /Volumes/HD 2/Autodafeh - 2011 - Act of Faith/02 - Autodafeh - 2011 - Killer.flac
    Track gain             : -7.67 dB
    Peak                   : 0.994629
    CRC32 hash (test run)  : 0EA35A74
    CRC32 hash             : 0EA35A74
    CRC32 hash (skip zero) : CA2A4E6E
    AccurateRip signature  : 6F47DE10
        ->Track not present in AccurateRip database.
    Statistics
        Read error                           : 0
        Jitter error (maybe fixed)           : 0
        Retry sector count                   : 0
        Damaged sector count                 : 0
Track 03
    Filename : /Volumes/HD 2/Autodafeh - 2011 - Act of Faith/03 - Autodafeh - 2011 - Land Of Nothing.flac
    Track gain             : -7.22 dB
    Peak                   : 0.994354
    CRC32 hash (test run)  : 7C0F7980
    CRC32 hash             : 7C0F7980
    CRC32 hash (skip zero) : 777D5D11
    AccurateRip signature  : 426A135B
        ->Track not present in AccurateRip database.
    Statistics
        Read error                           : 0
        Jitter error (maybe fixed)           : 0
        Retry sector count                   : 0
        Damaged sector count                 : 0
Track 04
    Filename : /Volumes/HD 2/Autodafeh - 2011 - Act of Faith/04 - Autodafeh - 2011 - Reality Shock.flac
    Track gain             : -7.65 dB
    Peak                   : 0.994415
    CRC32 hash (test run)  : 742C3BD5
    CRC32 hash             : 742C3BD5
    CRC32 hash (skip zero) : 31636045
    AccurateRip signature  : BA2A3094
        ->Track not present in AccurateRip database.
    Statistics
        Read error                           : 0
        Jitter error (maybe fixed)           : 0
        Retry sector count                   : 0
        Damaged sector count                 : 0
Track 05
    Filename : /Volumes/HD 2/Autodafeh - 2011 - Act of Faith/05 - Autodafeh - 2011 - Make Us Believe.flac
    Track gain             : -7.19 dB
    Peak                   : 0.994843
    CRC32 hash (test run)  : 7B52BBA7
    CRC32 hash             : 7B52BBA7
    CRC32 hash (skip zero) : 52A3DB06
    AccurateRip signature  : 59705E16
        ->Track not present in AccurateRip database.
    Statistics
        Read error                           : 0
        Jitter error (maybe fixed)           : 0
        Retry sector count                   : 0
        Damaged sector count                 : 0
Track 06
    Filename : /Volumes/HD 2/Autodafeh - 2011 - Act of Faith/06 - Autodafeh - 2011 - Watch Out.flac
    Track gain             : -7.91 dB
    Peak                   : 0.994354
    CRC32 hash (test run)  : EA3B8427
    CRC32 hash             : EA3B8427
    CRC32 hash (skip zero) : D715FB66
    AccurateRip signature  : E7C86BE5
        ->Track not present in AccurateRip database.
    Statistics
        Read error                           : 0
        Jitter error (maybe fixed)           : 0
        Retry sector count                   : 0
        Damaged sector count                 : 0
Track 07
    Filename : /Volumes/HD 2/Autodafeh - 2011 - Act of Faith/07 - Autodafeh - 2011 - Treasure Hunt.flac
    Track gain             : -6.87 dB
    Peak                   : 0.994812
    CRC32 hash (test run)  : D123606A
    CRC32 hash             : D123606A
    CRC32 hash (skip zero) : 46BA8980
    AccurateRip signature  : 278712F1
        ->Track not present in AccurateRip database.
    Statistics
        Read error                           : 0
        Jitter error (maybe fixed)           : 0
        Retry sector count                   : 0
        Damaged sector count                 : 0
Track 08
    Filename : /Volumes/HD 2/Autodafeh - 2011 - Act of Faith/08 - Autodafeh - 2011 - Wheel Of Faith.flac
    Track gain             : -7.81 dB
    Peak                   : 0.995087
    CRC32 hash (test run)  : C0101ED4
    CRC32 hash             : C0101ED4
    CRC32 hash (skip zero) : 900D3386
    AccurateRip signature  : 5D97630A
        ->Track not present in AccurateRip database.
    Statistics
        Read error                           : 0
        Jitter error (maybe fixed)           : 0
        Retry sector count                   : 0
        Damaged sector count                 : 0
Track 09
    Filename : /Volumes/HD 2/Autodafeh - 2011 - Act of Faith/09 - Autodafeh - 2011 - Promises.flac
    Track gain             : -8.19 dB
    Peak                   : 0.994354
    CRC32 hash (test run)  : 5186A37C
    CRC32 hash             : 5186A37C
    CRC32 hash (skip zero) : 27C9FCEF
    AccurateRip signature  : 29F4BC29
        ->Track not present in AccurateRip database.
    Statistics
        Read error                           : 0
        Jitter error (maybe fixed)           : 0
        Retry sector count                   : 0
        Damaged sector count                 : 0
Track 10
    Filename : /Volumes/HD 2/Autodafeh - 2011 - Act of Faith/10 - Autodafeh - 2011 - Camp Intel.flac
    Track gain             : -7.10 dB
    Peak                   : 0.994385
    CRC32 hash (test run)  : 2BDE06BD
    CRC32 hash             : 2BDE06BD
    CRC32 hash (skip zero) : C9455730
    AccurateRip signature  : 0A4CC4FE
        ->Track not present in AccurateRip database.
    Statistics
        Read error                           : 0
        Jitter error (maybe fixed)           : 0
        Retry sector count                   : 0
        Damaged sector count                 : 0
Track 11
    Filename : /Volumes/HD 2/Autodafeh - 2011 - Act of Faith/11 - Autodafeh - 2011 - Fuel Of Fire 2011.flac
    Track gain             : -6.86 dB
    Peak                   : 0.994385
    CRC32 hash (test run)  : AC7D7F61
    CRC32 hash             : AC7D7F61
    CRC32 hash (skip zero) : EAE7F2F8
    AccurateRip signature  : 212BB3B0
        ->Track not present in AccurateRip database.
    Statistics
        Read error                           : 0
        Jitter error (maybe fixed)           : 0
        Retry sector count                   : 0
        Damaged sector count                 : 0
Track 12
    Filename : /Volumes/HD 2/Autodafeh - 2011 - Act of Faith/12 - Autodafeh - 2011 - Divided We Fall 2011.flac
    Track gain             : -7.41 dB
    Peak                   : 0.994873
    CRC32 hash (test run)  : 5B588B9C
    CRC32 hash             : 5B588B9C
    CRC32 hash (skip zero) : 10523205
    AccurateRip signature  : B80012AA
        ->Track not present in AccurateRip database.
    Statistics
        Read error                           : 0
        Jitter error (maybe fixed)           : 0
        Retry sector count                   : 0
        Damaged sector count                 : 0
No errors occurred
End of status report
Код:
TITLE "Act Of Faith"
PERFORMER "Autodafeh"
REM GENRE "Electronica"
REM DATE "2011"
REM DISCNUMBER 1
REM TOTALDISCS 1
REM DISCID A20AEA0C
REM REPLAYGAIN_ALBUM_GAIN -7.46 dB
REM REPLAYGAIN_ALBUM_PEAK 0.995087
FILE "01 - Autodafeh - 2011 - Heaven Screams.flac" WAVE
  TRACK 01 AUDIO
    TITLE "Heaven Screams"
    PERFORMER "Autodafeh"
    REM REPLAYGAIN_TRACK_GAIN -6.98 dB
    REM REPLAYGAIN_TRACK_PEAK 0.994385
    INDEX 01 00:00:00
FILE "02 - Autodafeh - 2011 - Killer.flac" WAVE
  TRACK 02 AUDIO
    TITLE "Killer"
    PERFORMER "Autodafeh"
    REM REPLAYGAIN_TRACK_GAIN -7.67 dB
    REM REPLAYGAIN_TRACK_PEAK 0.994629
    INDEX 01 00:00:00
FILE "03 - Autodafeh - 2011 - Land Of Nothing.flac" WAVE
  TRACK 03 AUDIO
    TITLE "Land Of Nothing"
    PERFORMER "Autodafeh"
    REM REPLAYGAIN_TRACK_GAIN -7.22 dB
    REM REPLAYGAIN_TRACK_PEAK 0.994354
    INDEX 01 00:00:00
FILE "04 - Autodafeh - 2011 - Reality Shock.flac" WAVE
  TRACK 04 AUDIO
    TITLE "Reality Shock"
    PERFORMER "Autodafeh"
    REM REPLAYGAIN_TRACK_GAIN -7.65 dB
    REM REPLAYGAIN_TRACK_PEAK 0.994415
    INDEX 01 00:00:00
FILE "05 - Autodafeh - 2011 - Make Us Believe.flac" WAVE
  TRACK 05 AUDIO
    TITLE "Make Us Believe"
    PERFORMER "Autodafeh"
    REM REPLAYGAIN_TRACK_GAIN -7.19 dB
    REM REPLAYGAIN_TRACK_PEAK 0.994843
    INDEX 01 00:00:00
FILE "06 - Autodafeh - 2011 - Watch Out.flac" WAVE
  TRACK 06 AUDIO
    TITLE "Watch Out"
    PERFORMER "Autodafeh"
    REM REPLAYGAIN_TRACK_GAIN -7.91 dB
    REM REPLAYGAIN_TRACK_PEAK 0.994354
    INDEX 01 00:00:00
FILE "07 - Autodafeh - 2011 - Treasure Hunt.flac" WAVE
  TRACK 07 AUDIO
    TITLE "Treasure Hunt"
    PERFORMER "Autodafeh"
    REM REPLAYGAIN_TRACK_GAIN -6.87 dB
    REM REPLAYGAIN_TRACK_PEAK 0.994812
    INDEX 01 00:00:00
FILE "08 - Autodafeh - 2011 - Wheel Of Faith.flac" WAVE
  TRACK 08 AUDIO
    TITLE "Wheel Of Faith"
    PERFORMER "Autodafeh"
    REM REPLAYGAIN_TRACK_GAIN -7.81 dB
    REM REPLAYGAIN_TRACK_PEAK 0.995087
    INDEX 01 00:00:00
FILE "09 - Autodafeh - 2011 - Promises.flac" WAVE
  TRACK 09 AUDIO
    TITLE "Promises"
    PERFORMER "Autodafeh"
    REM REPLAYGAIN_TRACK_GAIN -8.19 dB
    REM REPLAYGAIN_TRACK_PEAK 0.994354
    INDEX 01 00:00:00
FILE "10 - Autodafeh - 2011 - Camp Intel.flac" WAVE
  TRACK 10 AUDIO
    TITLE "Camp Intel"
    PERFORMER "Autodafeh"
    REM REPLAYGAIN_TRACK_GAIN -7.10 dB
    REM REPLAYGAIN_TRACK_PEAK 0.994385
    INDEX 01 00:00:00
FILE "11 - Autodafeh - 2011 - Fuel Of Fire 2011.flac" WAVE
  TRACK 11 AUDIO
    TITLE "Fuel Of Fire 2011"
    PERFORMER "Autodafeh"
    REM REPLAYGAIN_TRACK_GAIN -6.86 dB
    REM REPLAYGAIN_TRACK_PEAK 0.994385
    INDEX 01 00:00:00
FILE "12 - Autodafeh - 2011 - Divided We Fall 2011.flac" WAVE
  TRACK 12 AUDIO
    TITLE "Divided We Fall 2011"
    PERFORMER "Autodafeh"
    REM REPLAYGAIN_TRACK_GAIN -7.41 dB
    REM REPLAYGAIN_TRACK_PEAK 0.994873
    INDEX 01 00:00:00
Код:
AUDIOCHECKER v2.0 beta (build 457) - by Dester - opdester@freemail.hu
~~~~~~~~~~~~~~~~~~~~~~~~~~~~~~~~~~
-=== DO NOT EDIT THIS FILE! ===-
Path: ...\Autodafeh - Act Of Faith (2011) FLAC
01 -=- 01 - Autodafeh - 2011 - Heaven Screams.flac -=- CDDA (99%)
02 -=- 02 - Autodafeh - 2011 - Killer.flac -=- CDDA (100%)
03 -=- 03 - Autodafeh - 2011 - Land Of Nothing.flac -=- CDDA (100%)
04 -=- 04 - Autodafeh - 2011 - Reality Shock.flac -=- CDDA (100%)
05 -=- 05 - Autodafeh - 2011 - Make Us Believe.flac -=- CDDA (100%)
06 -=- 06 - Autodafeh - 2011 - Watch Out.flac -=- CDDA (100%)
07 -=- 07 - Autodafeh - 2011 - Treasure Hunt.flac -=- CDDA (100%)
08 -=- 08 - Autodafeh - 2011 - Wheel Of Faith.flac -=- CDDA (100%)
09 -=- 09 - Autodafeh - 2011 - Promises.flac -=- CDDA (100%)
10 -=- 10 - Autodafeh - 2011 - Camp Intel.flac -=- CDDA (100%)
11 -=- 11 - Autodafeh - 2011 - Fuel Of Fire 2011.flac -=- CDDA (100%)
12 -=- 12 - Autodafeh - 2011 - Divided We Fall 2011.flac -=- CDDA (100%)
Summary 99,92% CDDA
79710452
Mika Rossi - Lead Vocals, Computers, Keys, Percussions
Jesper Nilsson - Vocals, Noise, Percussions
Anders Olsson - Vocals, Computers, Keys
Правила, инструкции, FAQ!!!
Торрент  Добавлен [26 июн 2020, 20:16] Скачать торрент Магнет ссылка
Скачать торрент
[ Размер 14.12 КБ / Просмотров 13 ]

Статус
Проверен 
 
Размер  322.16 МБ
Приватный: Нет (DHT включён)
.torrent скачан  0
 


     Отправить личное сообщение
   
Страница 1 из 1
Показать сообщения за:  Поле сортировки  
Начать новую тему Ответить на тему


Сейчас этот форум просматривают: нет зарегистрированных пользователей и гости: 0


Вы не можете начинать темы
Вы не можете отвечать на сообщения
Вы не можете редактировать свои сообщения
Вы не можете удалять свои сообщения
Вы не можете добавлять вложения

Перейти:  
cron