Начать новую тему Ответить на тему
Статистика раздачи
Размер: 122.78 МБ | Добавлен: 26 июн 2020, 17:20 | Скачали: 0
Сидеров: 0  [0 байт/сек]    Личеров: 0  [0 байт/сек]
Пред. тема | След. тема 

Автор
Сообщение

СообщениеДобавлено: 26 июн 2020, 17:20 

Ответить с цитатой 

Die Krupps - The Power (Single)
Жанр: Industrial
Год выпуска диска: 1993
Производитель диска: Austria
Аудио кодек: FLAC
Тип рипа: image+.cue
Битрейт аудио: lossless
Продолжительность: 16min14sek
Трэклист:
1. The Power (Metal-Hardfloor Remix)
2. The Power (The Mix From The Darkside)
3. The Power (Sparse Hardfloor Instrumental)
Доп. информация: Диск из собственной коллекции
Exact Audio Copy V0.99 prebeta 5 from 4. May 2009
Отчёт EAC об извлечении, выполненном 2. сентября 2009, 0:56
Die Krupps / The Power
Дисковод: TSSTcorpCD/DVDW SH-S182M Adapter: 0 ID: 0
Режим чтения : Достоверность
Использование точного потока : Да
Отключение кэша аудио : Да
Использование указателей C2 : Нет
Коррекция смещения при чтении : 6
Способность читать области Lead-in и Lead-out : Нет
Заполнение пропущенных сэмплов тишиной : Да
Удаление блоков с тишиной в начале и конце : Нет
При вычислениях CRC использовались нулевые сэмплы : Да
Интерфейс : Встроенный Win32-интерфейс для Win NT/2000
Выходной формат : Пользовательский кодировщик
Выбранный битрейт : 768 kBit/s
Качество : Высокий
Добавление ID3-тэга : Нет
Утилита сжатия : C:\Program Files\Exact Audio Copy\FLAC\FLAC.EXE
Дополнительные параметры : -6 -V -T "ARTIST=%a" -T "TITLE=%t" -T "ALBUM=%g" -T "DATE=%y" -T "TRACKNUMBER=%n" -T "GENRE=%m" -T "COMMENT=%e" %s -o %d
TOC извлечённого CD
Трек | Старт | Длительность | Начальный сектор | Конечный сектор
---------------------------------------------------------------------
1 | 0:00.00 | 5:26.55 | 0 | 24504
2 | 5:26.55 | 5:26.25 | 24505 | 48979
3 | 10:53.05 | 5:26.72 | 48980 | 73501
Характеристики диапазона извлечения и сообщения об ошибках
Выбранный диапазон
Имя файла C:\Documents and Settings\User\Мои документы\Downloads\1992 Die Krupps The Power\Die Krupps - The Power.wav
Пиковый уровень 100.0 %
Качество диапазона 100.0 %
CRC теста 002CD173
CRC копии 002CD173
Копирование... OK
Ошибок не произошло
AccurateRip: сводка
Трек 1 точное извлечение (доверие 2) [9BEC2C87]
Трек 2 точное извлечение (доверие 2) [394DA5C2]
Трек 3 точное извлечение (доверие 2) [02E6AD6B]
Все треки извлечены точно
Конец отчёта
[.spoiler]
Правила, инструкции, FAQ!!!
Торрент  Добавлен [26 июн 2020, 17:20] Скачать торрент Магнет ссылка
Скачать торрент
[ Размер 19.86 КБ / Просмотров 11 ]

Статус
Проверен 
 
Размер  122.78 МБ
Приватный: Нет (DHT включён)
.torrent скачан  0
 


     Отправить личное сообщение
   
Страница 1 из 1
Показать сообщения за:  Поле сортировки  
Начать новую тему Ответить на тему


Сейчас этот форум просматривают: нет зарегистрированных пользователей и гости: 0


Вы не можете начинать темы
Вы не можете отвечать на сообщения
Вы не можете редактировать свои сообщения
Вы не можете удалять свои сообщения
Вы не можете добавлять вложения

Перейти:  
cron