Начать новую тему Ответить на тему
Статистика раздачи
Размер: 161.72 МБ | Добавлен: 26 июн 2020, 17:20 | Скачали: 0
Сидеров: 1  [0 байт/сек]    Личеров: 4  [0 байт/сек]
Пред. тема | След. тема 

Автор
Сообщение

СообщениеДобавлено: 26 июн 2020, 17:20 

Ответить с цитатой 

Die Krupps - To The Hilt (Single)
[img=right][/img]
Жанр: Industrial
Год выпуска диска: 1994
Производитель диска: Austria
Аудио кодек: FLAC
Тип рипа: image+.cue
Битрейт аудио: lossless
Продолжительность: 22min 25sek
Трэклист:
1. To The Hilt (LP Version)
2. To The Hilt (Alien Club-Mix)
3. To The Hilt (Demian Mix)
4. The Dawning Of Doom (Live 12/93 in Sweden)
5. Bloodsuckers (Live 12/93 in Sweden)
Доп. информация: Диск из личной коллекции
Exact Audio Copy V0.99 prebeta 5 from 4. May 2009
Отчёт EAC об извлечении, выполненном 1. сентября 2009, 1:51
Kraftwerk / Showroom Dummies
Дисковод: TSSTcorpCD/DVDW SH-S182M Adapter: 0 ID: 0
Режим чтения : Достоверность
Использование точного потока : Да
Отключение кэша аудио : Да
Использование указателей C2 : Нет
Коррекция смещения при чтении : 6
Способность читать области Lead-in и Lead-out : Нет
Заполнение пропущенных сэмплов тишиной : Да
Удаление блоков с тишиной в начале и конце : Нет
При вычислениях CRC использовались нулевые сэмплы : Да
Интерфейс : Встроенный Win32-интерфейс для Win NT/2000
Выходной формат : Пользовательский кодировщик
Выбранный битрейт : 768 kBit/s
Качество : Высокий
Добавление ID3-тэга : Нет
Утилита сжатия : C:\Program Files\Exact Audio Copy\FLAC\FLAC.EXE
Дополнительные параметры : -6 -V -T "ARTIST=%a" -T "TITLE=%t" -T "ALBUM=%g" -T "DATE=%y" -T "TRACKNUMBER=%n" -T "GENRE=%m" -T "COMMENT=%e" %s -o %d
TOC извлечённого CD
Трек | Старт | Длительность | Начальный сектор | Конечный сектор
---------------------------------------------------------------------
1 | 0:00.32 | 6:13.13 | 32 | 28019
2 | 6:13.45 | 3:47.12 | 28020 | 45056
3 | 10:00.57 | 6:03.60 | 45057 | 72341
4 | 16:04.42 | 6:04.20 | 72342 | 99661
5 | 22:08.62 | 5:57.65 | 99662 | 126501
Характеристики диапазона извлечения и сообщения об ошибках
Выбранный диапазон
Имя файла C:\Documents and Settings\User\Мои документы\Downloads\1992 Kraftwerk Showroom Dummies\Kraftwerk - Showroom Dummies.wav
Пиковый уровень 100.0 %
Качество диапазона 100.0 %
CRC копии DAC737A1
Копирование... OK
Ошибок не произошло
AccurateRip: сводка
Трек 1 точное извлечение (доверие 4) [C88828B2]
Трек 2 точное извлечение (доверие 4) [B8CA0E6D]
Трек 3 точное извлечение (доверие 4) [A0604326]
Трек 4 точное извлечение (доверие 4) [B7B3BEC4]
Трек 5 точное извлечение (доверие 4) [6CB2FC86]
Все треки извлечены точно
Конец отчёта
Правила, инструкции, FAQ!!!
Торрент  Добавлен [26 июн 2020, 17:20] Скачать торрент Магнет ссылка
Скачать торрент
[ Размер 13.31 КБ / Просмотров 18 ]

Статус
Проверен 
 
Размер  161.72 МБ
Приватный: Нет (DHT включён)
.torrent скачан  0
 


     Отправить личное сообщение
   
Страница 1 из 1
Показать сообщения за:  Поле сортировки  
Начать новую тему Ответить на тему


Сейчас этот форум просматривают: нет зарегистрированных пользователей и гости: 0


Вы не можете начинать темы
Вы не можете отвечать на сообщения
Вы не можете редактировать свои сообщения
Вы не можете удалять свои сообщения
Вы не можете добавлять вложения

Перейти:  
cron
cron