Начать новую тему Ответить на тему
Статистика раздачи
Размер: 278.04 МБ | Добавлен: 26 июн 2020, 20:06 | Скачали: 0
Сидеров: 0  [0 байт/сек]    Личеров: 0  [0 байт/сек]
Пред. тема | След. тема 

Автор
Сообщение

СообщениеДобавлено: 26 июн 2020, 20:06 

Ответить с цитатой 

Die Krupps feat. Accuser - Metal Machine Music (Single)
Жанр: Industrial
Год выпуска диска: 1992
Производитель диска: Austria
Аудио кодек: FLAC
Тип рипа: image+.cue
Битрейт аудио: lossless
Продолжительность: 39 min 34 sek
Трэклист:
1. The Aggressor
2. The Machinist
3. The Trasher
4. Thr Theme
5. The Technician
6. The Welder
7. The Doppelganger
Доп. информация: Диск из личной коллекции
Exact Audio Copy V0.99 prebeta 5 from 4. May 2009
Отчёт EAC об извлечении, выполненном 2. сентября 2009, 10:40
Die Krupps (feat. Accuser) / Metal Maschine Music
Дисковод: TSSTcorpCD/DVDW SH-S182M Adapter: 0 ID: 0
Режим чтения : Достоверность
Использование точного потока : Да
Отключение кэша аудио : Да
Использование указателей C2 : Нет
Коррекция смещения при чтении : 6
Способность читать области Lead-in и Lead-out : Нет
Заполнение пропущенных сэмплов тишиной : Да
Удаление блоков с тишиной в начале и конце : Нет
При вычислениях CRC использовались нулевые сэмплы : Да
Интерфейс : Встроенный Win32-интерфейс для Win NT/2000
Выходной формат : Пользовательский кодировщик
Выбранный битрейт : 768 kBit/s
Качество : Высокий
Добавление ID3-тэга : Нет
Утилита сжатия : C:\Program Files\Exact Audio Copy\FLAC\FLAC.EXE
Дополнительные параметры : -6 -V -T "ARTIST=%a" -T "TITLE=%t" -T "ALBUM=%g" -T "DATE=%y" -T "TRACKNUMBER=%n" -T "GENRE=%m" -T "COMMENT=%e" %s -o %d
TOC извлечённого CD
Трек | Старт | Длительность | Начальный сектор | Конечный сектор
---------------------------------------------------------------------
1 | 0:00.00 | 5:43.27 | 0 | 25751
2 | 5:43.27 | 5:40.28 | 25752 | 51279
3 | 11:23.55 | 5:30.52 | 51280 | 76081
4 | 16:54.32 | 6:04.55 | 76082 | 103436
5 | 22:59.12 | 5:27.00 | 103437 | 127961
6 | 28:26.12 | 5:30.45 | 127962 | 152756
7 | 33:56.57 | 5:36.15 | 152757 | 177971
Характеристики диапазона извлечения и сообщения об ошибках
Выбранный диапазон
Имя файла I:\Моя музыка\v set\1992 Die Krupps feat. Accuser Metal Maschine Music\Die Krupps (feat. Accuser) - Metal Maschine Music.wav
Пиковый уровень 94.5 %
Качество диапазона 100.0 %
CRC теста 58D41174
CRC копии 58D41174
Копирование... OK
Ошибок не произошло
AccurateRip: сводка
Трек 1 точность не определена (достоверность 4) [444946B8], AccurateRip вернул [1DBF1FF1]
Трек 2 точность не определена (достоверность 4) [24801CB7], AccurateRip вернул [4490E20E]
Трек 3 точность не определена (достоверность 4) [5C518D5D], AccurateRip вернул [A1CEA144]
Трек 4 точность не определена (достоверность 4) [44B1B5E4], AccurateRip вернул [CD403269]
Трек 5 точность не определена (достоверность 4) [B56E6A4C], AccurateRip вернул [673AE883]
Трек 6 точность не определена (достоверность 4) [148EEC76], AccurateRip вернул [DB8CB383]
Трек 7 точность не определена (достоверность 4) [7FC598BE], AccurateRip вернул [D8062CE1]
Ни один трек не прошёл проверки на точность
В вашей базе может быть иной вариант штамповки диска
Конец отчёта
Правила, инструкции, FAQ!!!
Торрент  Добавлен [26 июн 2020, 20:06] Скачать торрент Магнет ссылка
Скачать торрент
[ Размер 11.63 КБ / Просмотров 7 ]

Статус
Проверен 
 
Размер  278.04 МБ
Приватный: Нет (DHT включён)
.torrent скачан  0
 


     Отправить личное сообщение
   
Страница 1 из 1
Показать сообщения за:  Поле сортировки  
Начать новую тему Ответить на тему


Сейчас этот форум просматривают: нет зарегистрированных пользователей и гости: 0


Вы не можете начинать темы
Вы не можете отвечать на сообщения
Вы не можете редактировать свои сообщения
Вы не можете удалять свои сообщения
Вы не можете добавлять вложения

Перейти:  
cron
cron