Начать новую тему Ответить на тему
Статистика раздачи
Размер: 153.49 МБ | Добавлен: 26 июн 2020, 19:42 | Скачали: 0
Сидеров: 0  [0 байт/сек]    Личеров: 0  [0 байт/сек]
Пред. тема | След. тема 

Автор
Сообщение

СообщениеДобавлено: 26 июн 2020, 19:42 

Ответить с цитатой 

Die Krupps - Crossfire (Single)
Жанр: Industrial
Год выпуска диска: 1994
Производитель диска: Austria
Аудио кодек: FLAC
Тип рипа: image+.cue
Битрейт аудио: lossless
Продолжительность: 20 min 30 sek
Трэклист:
1. Crossfire (In Your Face - Remix by Jim Martin)
2. Fatherland (Live in Lund/Sweden 12/93)
3. Germaniac (Live inLund/Sweden 12/93)
4. Crossfire (Both Sides - Remix by Jim Martin)
Доп. информация: Диск из личной коллекции
Exact Audio Copy V0.99 prebeta 5 from 4. May 2009
Отчёт EAC об извлечении, выполненном 5. сентября 2009, 16:39
Die Krupps / Crossfire
Дисковод: TSSTcorpCD/DVDW SH-S182M Adapter: 0 ID: 0
Режим чтения : Достоверность
Использование точного потока : Да
Отключение кэша аудио : Да
Использование указателей C2 : Нет
Коррекция смещения при чтении : 6
Способность читать области Lead-in и Lead-out : Нет
Заполнение пропущенных сэмплов тишиной : Да
Удаление блоков с тишиной в начале и конце : Нет
При вычислениях CRC использовались нулевые сэмплы : Да
Интерфейс : Встроенный Win32-интерфейс для Win NT/2000
Выходной формат : Пользовательский кодировщик
Выбранный битрейт : 768 kBit/s
Качество : Высокий
Добавление ID3-тэга : Нет
Утилита сжатия : C:\Program Files\Exact Audio Copy\FLAC\FLAC.EXE
Дополнительные параметры : -6 -V -T "ARTIST=%a" -T "TITLE=%t" -T "ALBUM=%g" -T "DATE=%y" -T "TRACKNUMBER=%n" -T "GENRE=%m" -T "COMMENT=%e" %s -o %d
TOC извлечённого CD
Трек | Старт | Длительность | Начальный сектор | Конечный сектор
---------------------------------------------------------------------
1 | 0:00.00 | 4:47.13 | 0 | 21537
2 | 4:47.13 | 4:12.57 | 21538 | 40494
3 | 8:59.70 | 6:43.03 | 40495 | 70722
4 | 15:42.73 | 4:45.12 | 70723 | 92109
Характеристики диапазона извлечения и сообщения об ошибках
Выбранный диапазон
Имя файла I:\Моя музыка\v set\1994 Die Krupps Crossfire\Die Krupps - Crossfire.wav
Пиковый уровень 99.0 %
Качество диапазона 100.0 %
CRC теста 5465BD11
CRC копии 5465BD11
Копирование... OK
Ошибок не произошло
AccurateRip: сводка
Трек 1 точное извлечение (доверие 1) [11762911]
Трек 2 точное извлечение (доверие 1) [9732058C]
Трек 3 точное извлечение (доверие 1) [F723E57B]
Трек 4 точное извлечение (доверие 1) [489C0961]
Все треки извлечены точно
Конец отчёта
Правила, инструкции, FAQ!!!
Торрент  Добавлен [26 июн 2020, 19:42] Скачать торрент Магнет ссылка
Скачать торрент
[ Размер 12.65 КБ / Просмотров 11 ]

Статус
Проверен 
 
Размер  153.49 МБ
Приватный: Нет (DHT включён)
.torrent скачан  0
 


     Отправить личное сообщение
   
Страница 1 из 1
Показать сообщения за:  Поле сортировки  
Начать новую тему Ответить на тему


Сейчас этот форум просматривают: нет зарегистрированных пользователей и гости: 0


Вы не можете начинать темы
Вы не можете отвечать на сообщения
Вы не можете редактировать свои сообщения
Вы не можете удалять свои сообщения
Вы не можете добавлять вложения

Перейти:  
cron