Начать новую тему Ответить на тему
Статистика раздачи
Размер: 273.93 МБ | Добавлен: 26 июн 2020, 16:52 | Скачали: 0
Сидеров: 0  [0 байт/сек]    Личеров: 0  [0 байт/сек]
Пред. тема | След. тема 

Автор
Сообщение

СообщениеДобавлено: 26 июн 2020, 16:52 

Ответить с цитатой 

Sinine - Butterflies
Жанр: Industrial, Darkwave, Electro
Страна-производитель диска: Germany
Год издания диска: 2009
Издатель (лейбл): Accession Records
Номер по каталогу: A 113
Страна: Estonia
Аудио кодек: FLAC (*.flac)
Тип рипа: tracks+.cue
Битрейт аудио: lossless
Продолжительность: 45:25
Источник (релизер): What.CD
Наличие сканов в содержимом раздачи: нет
Доп. информация: http://www.sinine.org/
Треклист:
01 Inglid 03:52
02 Our Green 05:59
03 The End 06:33
04 Loner 05:57
05 Tonight 04:13
06 Empty Me Of Emptiness 05:21
07 This Girl 06:28
08 Hello 07:03
Внимание! Все выложенные здесь материалы предоставлены исключительно в целях ознакомления! После ознакомления с материалами Вы обязаны их удалить! Если Вы хотите пользоваться данным материалом в дальнейшем – Вы должны приобрести лицензионный диск.
Лучшая ваша благодарность за раздачу - отзывы об альбоме!
Код:
X Lossless Decoder version 20100123 (115.4)
XLD extraction logfile from 2010-03-02 01:57:13 +0200
Sinine / Butterfies
Used drive : MATSHITA DVD-R   UJ-868 (revision KB19)
Use cdparanoia mode     : YES (CDParanoia III 10.2 engine)
Disable audio cache     : OK for the drive with cache less than 2750KB
Make use of C2 pointers : NO
Read offset correction  : 102
Max retry count         : 100
TOC of the extracted CD
     Track |   Start  |  Length  | Start sector | End sector
    ---------------------------------------------------------
        1  | 00:00:00 | 03:51:35 |         0    |    17359
        2  | 03:51:35 | 05:59:08 |     17360    |    44292
        3  | 09:50:43 | 06:32:42 |     44293    |    73734
        4  | 16:23:10 | 05:56:70 |     73735    |   100504
        5  | 22:20:05 | 04:12:47 |    100505    |   119451
        6  | 26:32:52 | 05:20:54 |    119452    |   143505
        7  | 31:53:31 | 06:28:32 |    143506    |   172637
        8  | 38:21:63 | 07:02:67 |    172638    |   204354
All Tracks
    Album gain             : -8.26 dB
    Peak                   : 0.988495
Track 01
    Filename : /Users/what.cd/Desktop/Sinine/01 - Inglid.flac
    Pre-gap length : 00:02:00
    Track gain             : -6.59 dB
    Peak                   : 0.988495
    CRC32 hash (test run)  : F92CC44E
    CRC32 hash             : F92CC44E
    CRC32 hash (skip zero) : CF8F8B9D
    AccurateRip signature  : 75788092
        ->Accurately ripped! (confidence 1)
    Statistics
        Read error                           : 0
        Skipped (treated as error)           : 0
        Edge jitter error (maybe fixed)      : 0
        Atom jitter error (maybe fixed)      : 0
        Drift error (maybe fixed)            : 0
        Dropped bytes error (maybe fixed)    : 0
        Duplicated bytes error (maybe fixed) : 0
        Inconsistency in error sectors       : 0
Track 02
    Filename : /Users/what.cd/Desktop/Sinine/02 - Our Green.flac
    Pre-gap length : 00:01:64
    Track gain             : -8.25 dB
    Peak                   : 0.988495
    CRC32 hash (test run)  : C5EFF199
    CRC32 hash             : C5EFF199
    CRC32 hash (skip zero) : 39898624
    AccurateRip signature  : FC19C592
        ->Accurately ripped! (confidence 1)
    Statistics
        Read error                           : 0
        Skipped (treated as error)           : 0
        Edge jitter error (maybe fixed)      : 0
        Atom jitter error (maybe fixed)      : 0
        Drift error (maybe fixed)            : 0
        Dropped bytes error (maybe fixed)    : 0
        Duplicated bytes error (maybe fixed) : 0
        Inconsistency in error sectors       : 0
Track 03
    Filename : /Users/what.cd/Desktop/Sinine/03 - The End.flac
    Pre-gap length : 00:00:30
    Track gain             : -8.73 dB
    Peak                   : 0.988495
    CRC32 hash (test run)  : 8878BBF8
    CRC32 hash             : 8878BBF8
    CRC32 hash (skip zero) : 8DD8F098
    AccurateRip signature  : 473CE9BF
        ->Accurately ripped! (confidence 1)
    Statistics
        Read error                           : 0
        Skipped (treated as error)           : 0
        Edge jitter error (maybe fixed)      : 0
        Atom jitter error (maybe fixed)      : 0
        Drift error (maybe fixed)            : 0
        Dropped bytes error (maybe fixed)    : 0
        Duplicated bytes error (maybe fixed) : 0
        Inconsistency in error sectors       : 0
Track 04
    Filename : /Users/what.cd/Desktop/Sinine/04 - Loner.flac
    Pre-gap length : 00:01:48
    Track gain             : -8.65 dB
    Peak                   : 0.988495
    CRC32 hash (test run)  : F04B081A
    CRC32 hash             : F04B081A
    CRC32 hash (skip zero) : 29B856F9
    AccurateRip signature  : A88AC8ED
        ->Accurately ripped! (confidence 1)
    Statistics
        Read error                           : 0
        Skipped (treated as error)           : 0
        Edge jitter error (maybe fixed)      : 0
        Atom jitter error (maybe fixed)      : 0
        Drift error (maybe fixed)            : 0
        Dropped bytes error (maybe fixed)    : 0
        Duplicated bytes error (maybe fixed) : 0
        Inconsistency in error sectors       : 0
Track 05
    Filename : /Users/what.cd/Desktop/Sinine/05 - Tonight.flac
    Pre-gap length : 00:01:54
    Track gain             : -7.99 dB
    Peak                   : 0.988495
    CRC32 hash (test run)  : 4B67DB7D
    CRC32 hash             : 4B67DB7D
    CRC32 hash (skip zero) : 40C31F9E
    AccurateRip signature  : 10EBC53F
        ->Accurately ripped! (confidence 1)
    Statistics
        Read error                           : 0
        Skipped (treated as error)           : 0
        Edge jitter error (maybe fixed)      : 0
        Atom jitter error (maybe fixed)      : 0
        Drift error (maybe fixed)            : 0
        Dropped bytes error (maybe fixed)    : 0
        Duplicated bytes error (maybe fixed) : 0
        Inconsistency in error sectors       : 0
Track 06
    Filename : /Users/what.cdDesktop/Sinine/06 - Empty Me Of Emptiness.flac
    Track gain             : -8.42 dB
    Peak                   : 0.988495
    CRC32 hash (test run)  : 4466E986
    CRC32 hash             : 4466E986
    CRC32 hash (skip zero) : 1BA8E191
    AccurateRip signature  : 3014DA8C
        ->Accurately ripped! (confidence 1)
    Statistics
        Read error                           : 0
        Skipped (treated as error)           : 0
        Edge jitter error (maybe fixed)      : 0
        Atom jitter error (maybe fixed)      : 0
        Drift error (maybe fixed)            : 0
        Dropped bytes error (maybe fixed)    : 0
        Duplicated bytes error (maybe fixed) : 0
        Inconsistency in error sectors       : 0
Track 07
    Filename : /Users/what.cd/Desktop/Sinine/07 - This Girl.flac
    Pre-gap length : 00:00:48
    Track gain             : -8.38 dB
    Peak                   : 0.988495
    CRC32 hash (test run)  : 3F29F975
    CRC32 hash             : 3F29F975
    CRC32 hash (skip zero) : 8C46D5C0
    AccurateRip signature  : 4640BCDA
        ->Accurately ripped! (confidence 1)
    Statistics
        Read error                           : 0
        Skipped (treated as error)           : 0
        Edge jitter error (maybe fixed)      : 0
        Atom jitter error (maybe fixed)      : 0
        Drift error (maybe fixed)            : 0
        Dropped bytes error (maybe fixed)    : 0
        Duplicated bytes error (maybe fixed) : 0
        Inconsistency in error sectors       : 0
Track 08
    Filename : /Users/what.cd/Desktop/Sinine/08 - Hello.flac
    Pre-gap length : 00:01:67
    Track gain             : -6.72 dB
    Peak                   : 0.988495
    CRC32 hash (test run)  : F2EEECA7
    CRC32 hash             : F2EEECA7
    CRC32 hash (skip zero) : 16B74679
    AccurateRip signature  : 553B8CC3
        ->Accurately ripped! (confidence 1)
    Statistics
        Read error                           : 0
        Skipped (treated as error)           : 0
        Edge jitter error (maybe fixed)      : 0
        Atom jitter error (maybe fixed)      : 0
        Drift error (maybe fixed)            : 0
        Dropped bytes error (maybe fixed)    : 0
        Duplicated bytes error (maybe fixed) : 0
        Inconsistency in error sectors       : 0
No errors occurred
End of status report
Код:
TITLE "Butterfies"
PERFORMER "Sinine"
REM GENRE "Electronica/Dance"
REM DATE 2009
FILE "01 - Inglid.wav" WAVE
  TRACK 01 AUDIO
    TITLE "Inglid"
    ISRC DEU550911301
    INDEX 01 00:00:00
  TRACK 02 AUDIO
    TITLE "Our Green"
    ISRC DEU550911302
    INDEX 00 03:49:46
FILE "02 - Our Green.wav" WAVE
    INDEX 01 00:00:00
  TRACK 03 AUDIO
    TITLE "The End"
    ISRC DEU550911303
    INDEX 00 05:58:53
FILE "03 - The End.wav" WAVE
    INDEX 01 00:00:00
  TRACK 04 AUDIO
    TITLE "Loner"
    ISRC DEU550911304
    INDEX 00 06:30:69
FILE "04 - Loner.wav" WAVE
    INDEX 01 00:00:00
  TRACK 05 AUDIO
    TITLE "Tonight"
    ISRC DEU550911305
    INDEX 00 05:55:16
FILE "05 - Tonight.wav" WAVE
    INDEX 01 00:00:00
FILE "06 - Empty Me Of Emptiness.wav" WAVE
  TRACK 06 AUDIO
    TITLE "Empty Me Of Emptiness"
    ISRC DEU550911306
    INDEX 01 00:00:00
  TRACK 07 AUDIO
    TITLE "This Girl"
    ISRC DEU550911307
    INDEX 00 05:20:06
FILE "07 - This Girl.wav" WAVE
    INDEX 01 00:00:00
  TRACK 08 AUDIO
    TITLE "Hello"
    ISRC DEU550911308
    INDEX 00 06:26:40
FILE "08 - Hello.wav" WAVE
    INDEX 01 00:00:00
Код:
Started at: ÷åòâåðã, 23. 09. 2010. - 19:56.04
8 files found
1 -===- H:\[Music (lossless)]\Sinine - [2009] - Butterflies\01 - Inglid.flac
  Extracted successfully
  Conclusion: this track is CDDA with probability 100%
  Tempfile successfully deleted.
2 -===- H:\[Music (lossless)]\Sinine - [2009] - Butterflies\02 - Our Green.flac
  Extracted successfully
  Conclusion: this track is CDDA with probability 100%
  Tempfile successfully deleted.
3 -===- H:\[Music (lossless)]\Sinine - [2009] - Butterflies\03 - The End.flac
  Extracted successfully
  Conclusion: this track is CDDA with probability 100%
  Tempfile successfully deleted.
4 -===- H:\[Music (lossless)]\Sinine - [2009] - Butterflies\04 - Loner.flac
  Extracted successfully
  Conclusion: this track is CDDA with probability 100%
  Tempfile successfully deleted.
5 -===- H:\[Music (lossless)]\Sinine - [2009] - Butterflies\05 - Tonight.flac
  Extracted successfully
  Conclusion: this track is CDDA with probability 100%
  Tempfile successfully deleted.
6 -===- H:\[Music (lossless)]\Sinine - [2009] - Butterflies\06 - Empty Me Of Emptiness.flac
  Extracted successfully
  Conclusion: this track is CDDA with probability 100%
  Tempfile successfully deleted.
7 -===- H:\[Music (lossless)]\Sinine - [2009] - Butterflies\07 - This Girl.flac
  Extracted successfully
  Conclusion: this track is CDDA with probability 100%
  Tempfile successfully deleted.
8 -===- H:\[Music (lossless)]\Sinine - [2009] - Butterflies\08 - Hello.flac
  Extracted successfully
  Conclusion: this track is CDDA with probability 100%
  Tempfile successfully deleted.
Finished at: ÷åòâåðã, 23. 09. 2010. - 20:02.13 (operation time: 0:06.09)



Estonian band Sinine meld dreamy electronica with more experimental darkwave sounds blended with acoustic instruments, creating unique dark-pop that is both intimate and immense.
"Some music is meant simply to entertain. Some is art. Some art is entertaining. Sinine's music surely is art and comes from deep within. It is heartfelt, honest and deep, and of course therefore it is an entertaining journey to travel through the songs," says Accession Records chairman Adrian Hates, who signed Sinine to release their debut album "Butterflies".
"Butterflies" is an honest concept album by Mauno Meesit and his band Sinine. Meesit has worked for five years to complete this album, and is sure he’s achieved the results he was after. Every sound and melody is carefully selected to express and describe a certain place, an atmosphere, the people and memories from his past. Besides the vocals sung and instruments played by Meesit himself, also a cellist and a violin player were engaged in the studio sessions, and several talented singers performed additional vocals.
The eight works on this record form a single big narrative, indexed at eight key moments of change. Each song can stand alone, but for the full effect they must be played consecutively, from the beginning to the end. In addittion, Meesit has mixed together his photos and paintings to create an inlay sleeve illustration for every song, providing even more links and symbols to be discovered.
Sinine merge deep atmospheres with a distinctly northern sound, crafting music that can be both warmly comforting as well as powerfully raging. There is something magical about Meesit's musical handwriting and creations, something that grabs you and won’t let go. Pop music has rarely sounded so heartfelt, meaningful and timeless. With Sinine, Mauno Meesit is writing an autobiographical book — a book of music, sound and time inspired by life itself.
It was fall 2003 when Meesit, after having played guitar in several experimental and rock bands, started searching for ways of making more personalized music. In addition to playing guitar, he started experimenting with electronic music, and his solo project Sinine (the Estonian word for "blue") was born. Today Sinine is a band with powerful and expressive live shows. Talented musicians beside Mauno Meesit are Andre Pichen on guitars and Liisa Hirsch on keyboards. Working in unison as Sinine, they have made several collaborations with guest musicians. Less than a year from their first show they have already shared stages with acts like Diary of Dreams, The Birthday Massacre, Noisuf-X, Forgotten Sunrise, and others.
The album "Butterflies" was released on September 18th, 2009 on the prominent German label Accession Records.
Accession Records has not signed any new bands for many, many years... So the fact, that Adrian Hates (DIARY OF DREAMS) label has now signed new act SININE from Estonia is a guarantee of something really outstanding to come!
It was in the autumn of 2003 that the Estonian guitarist Mauno Meesit, having played in several experimental and rock bands, started searching for ways of making more personalized music. In addition to playing guitar he started experimenting with synthesizers and samplers, and the project SININE (the Estonian word for blue) was born. Expansion of musical borders gave way to new explorations. From this, a sort of a musical stained glass window evolved, wherein different genres can be heard, and although combined freely, the music still remains loyal to the
authors own handwriting.
The music of SININE is a composition of real-life emotions and moments from the past, re-awoken in multi-layered sound spheres. Meesit has found sound and melody.equivalents for every place, atmosphere and cognition described, and by using a variety of instruments and multi-layered musical compositions, a creation where pop music blends with the borderlands of more refined genres emerges. It has resulted in music that does not need any sub-cultural genre to belong to, but seeks instead to emotionally recognize the language of music.
Artwork By, Photography - Mauno Meesit
Cello - Maarit Kangron
Mastered By - Christoph Stickel
Mixed By - Lauri Laagus
Music By, Lyrics By, Vocals, Guitar, Programmed By - Mauno Meesit
Violin - Elo Masing
Правила, инструкции, FAQ!!!
Торрент  Добавлен [26 июн 2020, 16:52] Скачать торрент Магнет ссылка
Скачать торрент
[ Размер 11.6 КБ / Просмотров 7 ]

Статус
Проверен 
 
Размер  273.93 МБ
Приватный: Нет (DHT включён)
.torrent скачан  0
 


     Отправить личное сообщение
   
Страница 1 из 1
Показать сообщения за:  Поле сортировки  
Начать новую тему Ответить на тему


Сейчас этот форум просматривают: нет зарегистрированных пользователей и гости: 0


Вы не можете начинать темы
Вы не можете отвечать на сообщения
Вы не можете редактировать свои сообщения
Вы не можете удалять свои сообщения
Вы не можете добавлять вложения

Перейти:  
cron