Начать новую тему Ответить на тему
Статистика раздачи
Размер: 413.84 МБ | Добавлен: 26 июн 2020, 17:09 | Скачали: 0
Сидеров: 0  [0 байт/сек]    Личеров: 0  [0 байт/сек]
Пред. тема | След. тема 

Автор
Сообщение

СообщениеДобавлено: 26 июн 2020, 17:09 

Ответить с цитатой 

Plasma Pool / Ezoterror
Жанр: Industrial, Dark Wave, Dark Ambient
Носитель: CD
Страна-производитель диска (релиза): Hungary (Венгрия)
Год издания: 2004
Издатель (лейбл): Not On Label ‎
Номер по каталогу: ppcd_03
Страна исполнителя (группы): Венгрия, Будапешт
Аудиокодек: FLAC (*.flac)
Тип рипа: tracks+.cue
Битрейт аудио: lossless
Продолжительность: 1:00:29
Источник (релизер): собсвенный rip
Наличие сканов в содержимом раздачи: да
Треклист:
01 Ezoterror
02 A Cimzett Ismeretlen
03 Csontnyeső
04 Mindegy
05 Add A Felet!
06 Nema Part
07 A Zuhanas Anatomiaja
08 Orokke Es Sohatobbe
09 Almatlansag
10 Olombol Aranyat
Код:
Exact Audio Copy V1.0 beta 3 from 29. August 2011
EAC extraction logfile from 8. January 2016, 2:44
Plasma Pool / Ezoterror
Used drive  : TSSTcorpCDDVDW SH-222AB   Adapter: 2  ID: 1
Read mode               : Secure
Utilize accurate stream : Yes
Defeat audio cache      : Yes
Make use of C2 pointers : No
Read offset correction                      : 6
Overread into Lead-In and Lead-Out          : No
Fill up missing offset samples with silence : Yes
Delete leading and trailing silent blocks   : No
Null samples used in CRC calculations       : Yes
Used interface                              : Native Win32 interface for Win NT & 2000
Gap handling                                : Appended to previous track
Used output format              : User Defined Encoder
Selected bitrate                : 128 kBit/s
Quality                         : High
Add ID3 tag                     : No
Command line compressor         : E:\Soft_Drivers\EAC\Exact Audio Copy\Flac\flac.exe
Additional command line options : -V -8 -T "Genre=%genre%" -T "Artist=%artist%" -T "Title=%title%" -T "Album=%albumtitle%" -T "Date=%year%" -T "Tracknumber=%tracknr%" -T "Comment=%comment%" %source%
TOC of the extracted CD
     Track |   Start  |  Length  | Start sector | End sector
    ---------------------------------------------------------
        1  |  0:00.00 |  5:59.74 |         0    |    26998
        2  |  5:59.74 |  6:08.60 |     26999    |    54658
        3  | 12:08.59 |  5:53.21 |     54659    |    81154
        4  | 18:02.05 |  6:34.22 |     81155    |   110726
        5  | 24:36.27 |  5:18.67 |    110727    |   134643
        6  | 29:55.19 |  6:21.21 |    134644    |   163239
        7  | 36:16.40 |  5:47.42 |    163240    |   189306
        8  | 42:04.07 |  6:26.49 |    189307    |   218305
        9  | 48:30.56 |  5:54.07 |    218306    |   244862
       10  | 54:24.63 |  6:04.12 |    244863    |   272174
Track  1
     Filename E:\CD RIP\Plasma Pool - Ezoterror (2004)\01 Ezoterror.wav
     Pre-gap length  0:00:02.00
     Peak level 100.0 %
     Extraction speed 5.3 X
     Track quality 100.0 %
     Test CRC 07FDB865
     Copy CRC 07FDB865
     Track not present in AccurateRip database
     Copy OK
Track  2
     Filename E:\CD RIP\Plasma Pool - Ezoterror (2004)\02 A Címzett Ismeretlen.wav
     Peak level 100.0 %
     Extraction speed 6.1 X
     Track quality 100.0 %
     Test CRC 284A8CDC
     Copy CRC 284A8CDC
     Track not present in AccurateRip database
     Copy OK
Track  3
     Filename E:\CD RIP\Plasma Pool - Ezoterror (2004)\03 Csontnyeső.wav
     Peak level 100.0 %
     Extraction speed 6.6 X
     Track quality 100.0 %
     Test CRC A874F4CD
     Copy CRC A874F4CD
     Track not present in AccurateRip database
     Copy OK
Track  4
     Filename E:\CD RIP\Plasma Pool - Ezoterror (2004)\04 Mindegy.wav
     Peak level 100.0 %
     Extraction speed 7.3 X
     Track quality 100.0 %
     Test CRC 345EBA7F
     Copy CRC 345EBA7F
     Track not present in AccurateRip database
     Copy OK
Track  5
     Filename E:\CD RIP\Plasma Pool - Ezoterror (2004)\05 Add A Felét!.wav
     Peak level 100.0 %
     Extraction speed 7.6 X
     Track quality 100.0 %
     Test CRC 233E260B
     Copy CRC 233E260B
     Track not present in AccurateRip database
     Copy OK
Track  6
     Filename E:\CD RIP\Plasma Pool - Ezoterror (2004)\06 Néma Part.wav
     Peak level 100.0 %
     Extraction speed 8.0 X
     Track quality 100.0 %
     Test CRC 61DBE4AF
     Copy CRC 61DBE4AF
     Track not present in AccurateRip database
     Copy OK
Track  7
     Filename E:\CD RIP\Plasma Pool - Ezoterror (2004)\07 A Zuhanás Anatómiája.wav
     Peak level 100.0 %
     Extraction speed 7.8 X
     Track quality 99.9 %
     Test CRC 84D46A1A
     Copy CRC 84D46A1A
     Track not present in AccurateRip database
     Copy OK
Track  8
     Filename E:\CD RIP\Plasma Pool - Ezoterror (2004)\08 Örökké És Sohatöbbé.wav
     Peak level 100.0 %
     Extraction speed 9.0 X
     Track quality 100.0 %
     Test CRC EC5FF96F
     Copy CRC EC5FF96F
     Track not present in AccurateRip database
     Copy OK
Track  9
     Filename E:\CD RIP\Plasma Pool - Ezoterror (2004)\09 Álmatlanság.wav
     Peak level 100.0 %
     Extraction speed 9.3 X
     Track quality 100.0 %
     Test CRC D0A43F67
     Copy CRC D0A43F67
     Track not present in AccurateRip database
     Copy OK
Track 10
     Filename E:\CD RIP\Plasma Pool - Ezoterror (2004)\10 Ólomból Aranyat.wav
     Peak level 100.0 %
     Extraction speed 9.5 X
     Track quality 100.0 %
     Test CRC 6F429C2A
     Copy CRC 6F429C2A
     Track not present in AccurateRip database
     Copy OK
None of the tracks are present in the AccurateRip database
No errors occurred
End of status report
==== Log checksum CB6BDB86D2C9C1DF304AFCE133B51A459F163978CAA74CA9E6B3BB4A22CAB020 ====
Код:
REM DATE 2004
REM DISCID 8F0E2D0A
REM COMMENT "ExactAudioCopy v1.0b3"
PERFORMER "Plasma Pool"
TITLE "Ezoterror"
FILE "01 Ezoterror.wav" WAVE
  TRACK 01 AUDIO
    TITLE "Ezoterror"
    PERFORMER "Plasma Pool"
    ISRC 000000000000
    INDEX 01 00:00:00
FILE "02 A Cimzett Ismeretlen.wav" WAVE
  TRACK 02 AUDIO
    TITLE "A Cimzett Ismeretlen"
    PERFORMER "Plasma Pool"
    ISRC 000000000000
    INDEX 01 00:00:00
FILE "03 Csontnyeső.wav" WAVE
  TRACK 03 AUDIO
    TITLE "Csontnyeső"
    PERFORMER "Plasma Pool"
    ISRC 000000000000
    INDEX 01 00:00:00
FILE "04 Mindegy.wav" WAVE
  TRACK 04 AUDIO
    TITLE "Mindegy"
    PERFORMER "Plasma Pool"
    ISRC 000000000000
    INDEX 01 00:00:00
FILE "05 Add A Felet!.wav" WAVE
  TRACK 05 AUDIO
    TITLE "Add A Felet!"
    PERFORMER "Plasma Pool"
    ISRC 000000000000
    INDEX 01 00:00:00
FILE "06 Nema Part.wav" WAVE
  TRACK 06 AUDIO
    TITLE "Nema Part"
    PERFORMER "Plasma Pool"
    ISRC 000000000000
    INDEX 01 00:00:00
FILE "07 A Zuhanas Anatomiaja.wav" WAVE
  TRACK 07 AUDIO
    TITLE "A Zuhanas Anatomiaja"
    PERFORMER "Plasma Pool"
    ISRC 000000000000
    INDEX 01 00:00:00
FILE "08 Orokke Es Sohatobbe.wav" WAVE
  TRACK 08 AUDIO
    TITLE "Orokke Es Sohatobbe"
    PERFORMER "Plasma Pool"
    ISRC 000000000000
    INDEX 01 00:00:00
FILE "09 Almatlansag.wav" WAVE
  TRACK 09 AUDIO
    TITLE "Almatlansag"
    PERFORMER "Plasma Pool"
    ISRC 000000000000
    INDEX 01 00:00:00
FILE "10 Olombol Aranyat.wav" WAVE
  TRACK 10 AUDIO
    TITLE "Olombol Aranyat"
    PERFORMER "Plasma Pool"
    ISRC 000000000000
    INDEX 01 00:00:00
Доп. информация: Стилистику группы Аттила Чихар определяет как Esoteric EBM и Black Tecno. Это последний на данный момент альбом группы.
Plasma Pool появились на свет в 1989 году в Будапеште (Венгрия) как сайд проект Attila Csihar (учавствовал так же в таких проектах, как: Aborym, Keep of Kalessin, Korog, Sunn O))), Tormentor (Hun) и др.). Группа представляла собой трио: Атилла Чихар - вокал, Интван Зилахи - клавишные, Лазло Кули - ударные.
P.S. - из-за особенностей языка, умляутов и пр. при снятии рипа слегка распи*орасило название 3-го трека и куй с треклистом в этом месте - кому надо можете сами поправить, выложено как есть.
Правила, инструкции, FAQ!!!
Торрент  Добавлен [26 июн 2020, 17:09] Скачать торрент Магнет ссылка
Скачать торрент
[ Размер 17.42 КБ / Просмотров 4 ]

Статус
Проверен 
 
Размер  413.84 МБ
Приватный: Нет (DHT включён)
.torrent скачан  0
 


     Отправить личное сообщение
   
Страница 1 из 1
Показать сообщения за:  Поле сортировки  
Начать новую тему Ответить на тему


Сейчас этот форум просматривают: нет зарегистрированных пользователей и гости: 0


Вы не можете начинать темы
Вы не можете отвечать на сообщения
Вы не можете редактировать свои сообщения
Вы не можете удалять свои сообщения
Вы не можете добавлять вложения

Перейти:  
cron