Начать новую тему Ответить на тему
Статистика раздачи
Размер: 494.63 МБ | Добавлен: 26 июн 2020, 19:33 | Скачали: 0
Сидеров: 0  [0 байт/сек]    Личеров: 0  [0 байт/сек]
Пред. тема | След. тема 

Автор
Сообщение

СообщениеДобавлено: 26 июн 2020, 19:33 

Ответить с цитатой 

yelworC - Brainstorming

Жанр: Industrial / Dark Electro
Год выпуска диска: 1992
Производитель диска: Germany
Аудио кодек: APE
Тип рипа: image+.cue
Битрейт аудио: lossless
Продолжительность: 66:21
Трэклист:
1 Funeral Procession (4:25)
2 Curse (4:34)
3 Sacred City (Short Mix) (4:50)
4 Inquest (Re-Gripped From A.I.W.A.S.S 1992) (4:05)
5 Blood In Face (5:32)
6 Anchoria (6:29)
7 Sacrilege (2:22)
8 Spellbound (6:17)
9 Claustrophobia (4:45)
10 Dreamless Vision (5:14)
11 Golden Cross (5:03)
12 Get Vomit (Re-Gripped From A.I.W.A.S.S 1992) (5:58)
13 Celebration (5:50)
Доп. информация: Celtic Circle Productions; C.C.P. 01
Код:
Exact Audio Copy V0.99 prebeta 4 from 23. January 2008
EAC extraction logfile from 17. December 2008, 18:07
YelworC / Brainstorming
Used drive  : PLEXTOR CD-R   PX-W4824A   Adapter: 1  ID: 1
Read mode               : Secure
Utilize accurate stream : Yes
Defeat audio cache      : Yes
Make use of C2 pointers : No
Read offset correction                      : 98
Overread into Lead-In and Lead-Out          : No
Fill up missing offset samples with silence : Yes
Delete leading and trailing silent blocks   : No
Null samples used in CRC calculations       : Yes
Used interface                              : Installed external ASPI interface
Used output format : Internal WAV Routines
Sample format      : 44.100 Hz; 16 Bit; Stereo
TOC of the extracted CD
     Track |   Start  |  Length  | Start sector | End sector
    ---------------------------------------------------------
        1  |  0:00.30 |  4:27.06 |        30  |       20060
        2  |  4:27.36 |  4:37.67 |     20061  |       40902
        3  |  9:05.28 |  4:53.17 |     40903  |       62894
        4  | 13:58.45 |  4:10.10 |     62895  |       81654
        5  | 18:08.55 |  5:36.74 |     81655  |      106928
        6  | 23:45.54 |  6:33.14 |    106929  |      136417
        7  | 30:18.68 |  2:25.58 |    136418  |      147350
        8  | 32:44.51 |  6:21.44 |    147351  |      175969
        9  | 39:06.20 |  4:50.19 |    175970  |      197738
       10  | 43:56.39 |  5:19.14 |    197739  |      221677
       11  | 49:15.53 |  5:07.72 |    221678  |      244774
       12  | 54:23.50 |  6:05.14 |    244775  |      272163
       13  | 60:28.64 |  5:53.08 |    272164  |      298646
Range status and errors
Selected range
   Filename I:\YelworC - Brainstorming\CDImage.wav
   Peak level 100.0 %
   Range quality 100.0 %
   Test CRC 8FD9FA75
   Copy CRC 8FD9FA75
   Copy OK
No errors occurred
AccurateRip summary
Track  1  accurately ripped (confidence 2)  [93B77961]
Track  2  accurately ripped (confidence 2)  [C3C42019]
Track  3  accurately ripped (confidence 2)  [22A2F4A0]
Track  4  accurately ripped (confidence 3)  [59808CF4]
Track  5  accurately ripped (confidence 3)  [04961E3D]
Track  6  accurately ripped (confidence 3)  [60385B75]
Track  7  accurately ripped (confidence 3)  [CE041E91]
Track  8  accurately ripped (confidence 2)  [E73B878F]
Track  9  accurately ripped (confidence 3)  [2592990C]
Track 10  accurately ripped (confidence 3)  [D09B51E7]
Track 11  accurately ripped (confidence 3)  [56E41092]
Track 12  accurately ripped (confidence 2)  [8C0236BB]
Track 13  accurately ripped (confidence 2)  [394691DC]
All tracks accurately ripped
End of status report
Код:
AUDIOCHECKER v2.0 beta (build 457) - by Dester - opdester@freemail.hu
~~~~~~~~~~~~~~~~~~~~~~~~~~~~~~~~~~
-=== DO NOT EDIT THIS FILE! ===-
Path: ...\YelworC - Brainstorming
1 -=- CDImage.wav -=- CDDA (100%)
190127764
Правила, инструкции, FAQ!!!
Торрент  Добавлен [26 июн 2020, 19:33] Скачать торрент Магнет ссылка
Скачать торрент
[ Размер 20.46 КБ / Просмотров 11 ]

Статус
Проверен 
 
Размер  494.63 МБ
Приватный: Нет (DHT включён)
.torrent скачан  0
 


     Отправить личное сообщение
   
Страница 1 из 1
Показать сообщения за:  Поле сортировки  
Начать новую тему Ответить на тему


Сейчас этот форум просматривают: нет зарегистрированных пользователей и гости: 0


Вы не можете начинать темы
Вы не можете отвечать на сообщения
Вы не можете редактировать свои сообщения
Вы не можете удалять свои сообщения
Вы не можете добавлять вложения

Перейти:  
cron