Начать новую тему Ответить на тему
Статистика раздачи
Размер: 215.18 МБ | Добавлен: 26 июн 2020, 17:26 | Скачали: 0
Сидеров: 0  [0 байт/сек]    Личеров: 0  [0 байт/сек]
Пред. тема | След. тема 

Автор
Сообщение

СообщениеДобавлено: 26 июн 2020, 17:26 

Ответить с цитатой 

Wumpscut vs. Haujobb - The Remix Wars: Strike 1
Жанр: Industrial / Dark Electro
Год выпуска диска: 1995
Производитель диска: Germany
Аудио кодек: APE
Тип рипа: image+.cue
Битрейт аудио: lossless
Продолжительность: 29:40
Трэклист:
1. Wumpscut In The Night (Enhanced Vision) (4:58) Remix - Haujobb
2. Wumpscut Die In Winter (Seasons Change: Springtime) (5:23) Remix - Haujobb
3. Wumpscut Mother (Oral Staircase) (5:31) Remix - Haujobb
4. Haujobb Consciousness (Thought Combattery1) (5:08) Remix - Wumpscut
5. Haujobb World Window (Fusion-Mix) (4:40) Remix - Wumpscut
6. Haujobb Nezzwerk (Full Access-Mix) (4:15) Remix - Wumpscut
Доп. информация: Off Beat; O-046
Distributor (SPV) cat#: SPV 068-22452
Код:
Exact Audio Copy V0.99 prebeta 4 from 23. January 2008
EAC extraction logfile from 4. December 2008, 0:37
Wumpscut vs. Haujobb / The Remix Wars, Strike I
Used drive  : TEAC    DV-W520GS   Adapter: 5  ID: 0
Read mode               : Secure
Utilize accurate stream : Yes
Defeat audio cache      : Yes
Make use of C2 pointers : No
Read offset correction                      : 6
Overread into Lead-In and Lead-Out          : No
Fill up missing offset samples with silence : Yes
Delete leading and trailing silent blocks   : No
Null samples used in CRC calculations       : Yes
Used interface                              : Installed external ASPI interface
Used output format : Internal WAV Routines
Sample format      : 44.100 Hz; 16 Bit; Stereo
TOC of the extracted CD
     Track |   Start  |  Length  | Start sector | End sector
    ---------------------------------------------------------
        1  |  0:00.00 |  5:01.00 |         0  |       22574
        2  |  5:01.00 |  5:18.55 |     22575  |       46479
        3  | 10:19.55 |  5:27.60 |     46480  |       71064
        4  | 15:47.40 |  5:04.08 |     71065  |       93872
        5  | 20:51.48 |  4:36.50 |     93873  |      114622
        6  | 25:28.23 |  4:10.01 |    114623  |      133373
Range status and errors
Selected range
   Filename J:\Wumpscut vs. Haujobb - The Remix Wars, Strike I\CDImage.wav
   Peak level 99.0 %
   Range quality 100.0 %
   Test CRC 45375866
   Copy CRC 45375866
   Copy OK
No errors occurred
AccurateRip summary
Track  1  not present in database
Track  2  not present in database
Track  3  not present in database
Track  4  not present in database
Track  5  not present in database
Track  6  not present in database
None of the tracks are present in the AccurateRip database
End of status report
Код:
AUDIOCHECKER v2.0 beta (build 457) - by Dester - opdester@freemail.hu
~~~~~~~~~~~~~~~~~~~~~~~~~~~~~~~~~~
-=== DO NOT EDIT THIS FILE! ===-
Path: ...\Wumpscut vs. Haujobb - The Remix Wars, Strike I
01 -=- CDImage.wav -=- CDDA (100%)
190127764
Правила, инструкции, FAQ!!!
Торрент  Добавлен [26 июн 2020, 17:26] Скачать торрент Магнет ссылка
Скачать торрент
[ Размер 17.7 КБ / Просмотров 5 ]

Статус
Проверен 
 
Размер  215.18 МБ
Приватный: Нет (DHT включён)
.torrent скачан  0
 


     Отправить личное сообщение
   
Страница 1 из 1
Показать сообщения за:  Поле сортировки  
Начать новую тему Ответить на тему


Сейчас этот форум просматривают: нет зарегистрированных пользователей и гости: 0


Вы не можете начинать темы
Вы не можете отвечать на сообщения
Вы не можете редактировать свои сообщения
Вы не можете удалять свои сообщения
Вы не можете добавлять вложения

Перейти:  
cron