Начать новую тему Ответить на тему
Статистика раздачи
Размер: 169.87 МБ | Добавлен: 26 июн 2020, 20:14 | Скачали: 0
Сидеров: 0  [0 байт/сек]    Личеров: 0  [0 байт/сек]
Пред. тема | След. тема 

Автор
Сообщение

СообщениеДобавлено: 26 июн 2020, 20:14 

Ответить с цитатой 

Wumpscut - Dried Blood EP
Жанр: Industrial / Dark Electro
Год выпуска диска: 1994
Производитель диска: Germany
Аудио кодек: APE
Тип рипа: image+.cue
Битрейт аудио: lossless
Продолжительность: 19:47
Трэклист:
1. Black Death (French Concept) (5:50)
2. Body Parts (Radio Edit) (4:31)
3. Funeral Diner (Red Tape Version) (4:04)
4. Dried Blood (Radical Cut) (1:43)
5. Dying Culture (First Movement) (3:35)
Доп. информация: Ant-Zen; Ikon 1
Re-issue (c) 1997, remastered.
Код:
Exact Audio Copy V0.99 prebeta 4 from 23. January 2008
EAC extraction logfile from 3. December 2008, 23:25
Wumpscut / Dried Blood
Used drive  : TEAC    DV-W520GS   Adapter: 5  ID: 0
Read mode               : Secure
Utilize accurate stream : Yes
Defeat audio cache      : Yes
Make use of C2 pointers : No
Read offset correction                      : 6
Overread into Lead-In and Lead-Out          : No
Fill up missing offset samples with silence : Yes
Delete leading and trailing silent blocks   : No
Null samples used in CRC calculations       : Yes
Used interface                              : Installed external ASPI interface
Used output format : Internal WAV Routines
Sample format      : 44.100 Hz; 16 Bit; Stereo
TOC of the extracted CD
     Track |   Start  |  Length  | Start sector | End sector
    ---------------------------------------------------------
        1  |  0:00.00 |  5:50.22 |         0  |       26271
        2  |  5:50.22 |  4:31.15 |     26272  |       46611
        3  | 10:21.37 |  4:04.50 |     46612  |       64961
        4  | 14:26.12 |  1:43.48 |     64962  |       72734
        5  | 16:09.60 |  3:35.72 |     72735  |       88931
Range status and errors
Selected range
   Filename J:\Wumpscut - Dried Blood CDEP\CDImage.wav
   Peak level 99.4 %
   Range quality 100.0 %
   Test CRC 4EAD4733
   Copy CRC 4EAD4733
   Copy OK
No errors occurred
AccurateRip summary
Track  1  not present in database
Track  2  not present in database
Track  3  not present in database
Track  4  not present in database
Track  5  not present in database
None of the tracks are present in the AccurateRip database
End of status report
Код:
AUDIOCHECKER v2.0 beta (build 457) - by Dester - opdester@freemail.hu
~~~~~~~~~~~~~~~~~~~~~~~~~~~~~~~~~~
-=== DO NOT EDIT THIS FILE! ===-
Path: ...\Wumpscut - Dried Blood CDEP
01 -=- CDImage.wav -=- CDDA (100%)
190127764
Правила, инструкции, FAQ!!!
Торрент  Добавлен [26 июн 2020, 20:14] Скачать торрент Магнет ссылка
Скачать торрент
[ Размер 14.04 КБ / Просмотров 13 ]

Статус
Проверен 
 
Размер  169.87 МБ
Приватный: Нет (DHT включён)
.torrent скачан  0
 


     Отправить личное сообщение
   
Страница 1 из 1
Показать сообщения за:  Поле сортировки  
Начать новую тему Ответить на тему


Сейчас этот форум просматривают: нет зарегистрированных пользователей и гости: 0


Вы не можете начинать темы
Вы не можете отвечать на сообщения
Вы не можете редактировать свои сообщения
Вы не можете удалять свои сообщения
Вы не можете добавлять вложения

Перейти:  
cron