Начать новую тему Ответить на тему
Статистика раздачи
Размер: 185.54 МБ | Добавлен: 26 июн 2020, 17:22 | Скачали: 0
Сидеров: 0  [0 байт/сек]    Личеров: 0  [0 байт/сек]
Пред. тема | След. тема 

Автор
Сообщение

СообщениеДобавлено: 26 июн 2020, 17:22 

Ответить с цитатой 

Wumpscut - Deliverance (MCD)

Жанр: Industrial / Dark Electro
Год выпуска диска: 2001
Производитель диска: Germany
Аудио кодек: APE
Тип рипа: image+.cue
Битрейт аудио: lossless
Продолжительность: 25:53
Трэклист:
1. Deliverance (radio mix) (3:48)
2. Deliverance (Alternative Club mix) (4:50)
3. Deliverance (Reminescing mix) (4:55)
4. Deliverance (Soldatengrab remix) (4:24)
5. [untitled] (4:37)
6. Ruda (3:20)
Доп. информация: Beton Kopf Media; bkm etah 16
Код:
Exact Audio Copy V0.99 prebeta 4 from 23. January 2008
EAC extraction logfile from 3. December 2008, 23:15
Wumpscut / Deliverance
Used drive  : TEAC    DV-W520GS   Adapter: 5  ID: 0
Read mode               : Secure
Utilize accurate stream : Yes
Defeat audio cache      : Yes
Make use of C2 pointers : No
Read offset correction                      : 6
Overread into Lead-In and Lead-Out          : No
Fill up missing offset samples with silence : Yes
Delete leading and trailing silent blocks   : No
Null samples used in CRC calculations       : Yes
Used interface                              : Installed external ASPI interface
Used output format : Internal WAV Routines
Sample format      : 44.100 Hz; 16 Bit; Stereo
TOC of the extracted CD
     Track |   Start  |  Length  | Start sector | End sector
    ---------------------------------------------------------
        1  |  0:00.00 |  3:48.07 |         0  |       17106
        2  |  3:48.07 |  4:49.60 |     17107  |       38841
        3  |  8:37.67 |  4:54.42 |     38842  |       60933
        4  | 13:32.34 |  4:24.33 |     60934  |       80766
        5  | 17:56.67 |  4:36.42 |     80767  |      101508
        6  | 22:33.34 |  3:20.20 |    101509  |      116528
Range status and errors
Selected range
   Filename J:\Wumpscut - Deliverance CD5\CDImage.wav
   Peak level 100.0 %
   Range quality 100.0 %
   Test CRC C70172FF
   Copy CRC C70172FF
   Copy OK
No errors occurred
AccurateRip summary
Track  1  accurately ripped (confidence 3)  [0785B4AF]
Track  2  accurately ripped (confidence 3)  [2E6D0006]
Track  3  accurately ripped (confidence 2)  [5213832F]
Track  4  accurately ripped (confidence 3)  [4707D11C]
Track  5  accurately ripped (confidence 3)  [4D2D1610]
Track  6  accurately ripped (confidence 2)  [B7AFF13B]
All tracks accurately ripped
End of status report
Код:
AUDIOCHECKER v2.0 beta (build 457) - by Dester - opdester@freemail.hu
~~~~~~~~~~~~~~~~~~~~~~~~~~~~~~~~~~
-=== DO NOT EDIT THIS FILE! ===-
Path: ...\Wumpscut - Deliverance CD5
01 -=- CDImage.wav -=- CDDA (99%)
162884180
Правила, инструкции, FAQ!!!
Торрент  Добавлен [26 июн 2020, 17:22] Скачать торрент Магнет ссылка
Скачать торрент
[ Размер 15.21 КБ / Просмотров 16 ]

Статус
Проверен 
 
Размер  185.54 МБ
Приватный: Нет (DHT включён)
.torrent скачан  0
 


     Отправить личное сообщение
   
Страница 1 из 1
Показать сообщения за:  Поле сортировки  
Начать новую тему Ответить на тему


Сейчас этот форум просматривают: нет зарегистрированных пользователей и гости: 0


Вы не можете начинать темы
Вы не можете отвечать на сообщения
Вы не можете редактировать свои сообщения
Вы не можете удалять свои сообщения
Вы не можете добавлять вложения

Перейти:  
cron