Начать новую тему Ответить на тему
Статистика раздачи
Размер: 355.66 МБ | Добавлен: 26 июн 2020, 20:47 | Скачали: 0
Сидеров: 0  [0 байт/сек]    Личеров: 0  [0 байт/сек]
Пред. тема | След. тема 

Автор
Сообщение

СообщениеДобавлено: 26 июн 2020, 20:47 

Ответить с цитатой 

Suicide Commando - Stored Images
Жанр: Industrial,Dark Electro
Год выпуска диска: 1995
Производитель диска: Germany
Аудио кодек: FLAC
Тип рипа: image+.cue
Битрейт аудио: lossless
Продолжительность: 50min 32sek
Трэклист:
1. Murder
2. The Exit
3. Save Me (Remix)
4. The Human Disgrace
5. Intercourse (Reloaded ll)
6. Dying Inside
7. Mortal Combat (Final Akt l)
8. The End Of Your Life
9. Actions Of The Mind
10. T.V.-obsession
11. See You In Hell !
Доп. информация: Диск мой. Сканы внутри.
Exact Audio Copy V0.99 prebeta 5 from 4. May 2009
Отчёт EAC об извлечении, выполненном 27. сентября 2009, 15:56
Suicide Commando / Stored Images
Дисковод: TSSTcorpCD/DVDW SH-S182M Adapter: 0 ID: 0
Режим чтения : Достоверность
Использование точного потока : Да
Отключение кэша аудио : Да
Использование указателей C2 : Нет
Коррекция смещения при чтении : 6
Способность читать области Lead-in и Lead-out : Нет
Заполнение пропущенных сэмплов тишиной : Да
Удаление блоков с тишиной в начале и конце : Нет
При вычислениях CRC использовались нулевые сэмплы : Да
Интерфейс : Встроенный Win32-интерфейс для Win NT/2000
Выходной формат : Пользовательский кодировщик
Выбранный битрейт : 768 kBit/s
Качество : Высокий
Добавление ID3-тэга : Нет
Утилита сжатия : C:\Program Files\Exact Audio Copy\FLAC\FLAC.EXE
Дополнительные параметры : -6 -V -T "ARTIST=%a" -T "TITLE=%t" -T "ALBUM=%g" -T "DATE=%y" -T "TRACKNUMBER=%n" -T "GENRE=%m" -T "COMMENT=%e" %s -o %d
TOC извлечённого CD
Трек | Старт | Длительность | Начальный сектор | Конечный сектор
---------------------------------------------------------------------
1 | 0:00.00 | 5:47.64 | 0 | 26088
2 | 5:47.64 | 5:04.20 | 26089 | 48908
3 | 10:52.09 | 5:43.36 | 48909 | 74669
4 | 16:35.45 | 2:35.24 | 74670 | 86318
5 | 19:10.69 | 3:59.65 | 86319 | 104308
6 | 23:10.59 | 5:22.61 | 104309 | 128519
7 | 28:33.45 | 3:59.69 | 128520 | 146513
8 | 32:33.39 | 3:48.08 | 146514 | 163621
9 | 36:21.47 | 5:43.27 | 163622 | 189373
10 | 42:04.74 | 4:45.61 | 189374 | 210809
11 | 46:50.60 | 3:39.42 | 210810 | 227276
Характеристики диапазона извлечения и сообщения об ошибках
Выбранный диапазон
Имя файла C:\Documents and Settings\User\Мои документы\Code\1995 Suicide Commando Stored Images\Suicide Commando - Stored Images.wav
Пиковый уровень 97.7 %
Качество диапазона 100.0 %
CRC теста 0A503D79
CRC копии 0A503D79
Копирование... OK
Ошибок не произошло
AccurateRip: сводка
Трек 1 точное извлечение (доверие 2) [A70F2F74]
Трек 2 точное извлечение (доверие 2) [A61CA9B3]
Трек 3 точное извлечение (доверие 2) [1B8E2F42]
Трек 4 точное извлечение (доверие 2) [6383D7EB]
Трек 5 точное извлечение (доверие 2) [FAA55E48]
Трек 6 точное извлечение (доверие 2) [F3613129]
Трек 7 точное извлечение (доверие 2) [3241B9B4]
Трек 8 точное извлечение (доверие 2) [E2AC9D50]
Трек 9 точное извлечение (доверие 2) [F4C0EEA4]
Трек 10 точное извлечение (доверие 2) [EAD74B73]
Трек 11 точное извлечение (доверие 2) [C147B3B4]
Все треки извлечены точно
Конец отчёта
Правила, инструкции, FAQ!!!
Торрент  Добавлен [26 июн 2020, 20:47] Скачать торрент Магнет ссылка
Скачать торрент
[ Размер 14.78 КБ / Просмотров 10 ]

Статус
Проверен 
 
Размер  355.66 МБ
Приватный: Нет (DHT включён)
.torrent скачан  0
 


     Отправить личное сообщение
   
Страница 1 из 1
Показать сообщения за:  Поле сортировки  
Начать новую тему Ответить на тему


Сейчас этот форум просматривают: нет зарегистрированных пользователей и гости: 0


Вы не можете начинать темы
Вы не можете отвечать на сообщения
Вы не можете редактировать свои сообщения
Вы не можете удалять свои сообщения
Вы не можете добавлять вложения

Перейти:  
cron