Начать новую тему Ответить на тему
Статистика раздачи
Размер: 399.09 МБ | Добавлен: 26 июн 2020, 17:11 | Скачали: 0
Сидеров: 0  [0 байт/сек]    Личеров: 0  [0 байт/сек]
Пред. тема | След. тема 

Автор
Сообщение

СообщениеДобавлено: 26 июн 2020, 17:11 

Ответить с цитатой 

Psychopomps - First Blood

Жанр: Industrial / Dark Electro
Год выпуска диска: 1996
Производитель диска: US
Аудио кодек: APE
Тип рипа: image+.cue
Битрейт аудио: lossless
Продолжительность: 61:02
Трэклист:
1 Drunk City (6:11)
2 Drug Addict (5:50)
3 Animals ('90 Version) (4:28)
4 Hate (4:10)
5 Baby-Terror Baby (3:42)
6 AMF ('90 Version) (3:07)
7 Somnambulism (6:02)
8 Never Forgive! Never Forget! (5:05)
9 Wanted To Tell You (5:38)
10 Rock Around The Cock (0:17)
11 March Along (5:07)
12 Out Of Control (3:58)
13 AMF ('89 Version) (2:57)
14 Animals ('89 Version) (4:23)
Доп. информация: Cleopatra; CLP 9692-2
Код:
Exact Audio Copy V0.99 prebeta 4 from 23. January 2008
EAC extraction logfile from 3. December 2008, 17:23
Psychopomps / First Blood
Used drive  : PLEXTOR CD-R   PX-W4824A   Adapter: 1  ID: 1
Read mode               : Secure
Utilize accurate stream : Yes
Defeat audio cache      : Yes
Make use of C2 pointers : No
Read offset correction                      : 98
Overread into Lead-In and Lead-Out          : No
Fill up missing offset samples with silence : Yes
Delete leading and trailing silent blocks   : No
Null samples used in CRC calculations       : Yes
Used interface                              : Installed external ASPI interface
Used output format : Internal WAV Routines
Sample format      : 44.100 Hz; 16 Bit; Stereo
TOC of the extracted CD
     Track |   Start  |  Length  | Start sector | End sector
    ---------------------------------------------------------
        1  |  0:00.50 |  6:11.50 |        50  |       27924
        2  |  6:12.25 |  5:50.45 |     27925  |       54219
        3  | 12:02.70 |  4:28.17 |     54220  |       74336
        4  | 16:31.12 |  4:10.30 |     74337  |       93116
        5  | 20:41.42 |  3:42.60 |     93117  |      109826
        6  | 24:24.27 |  3:07.53 |    109827  |      123904
        7  | 27:32.05 |  6:02.12 |    123905  |      151066
        8  | 33:34.17 |  5:05.50 |    151067  |      173991
        9  | 38:39.67 |  5:38.58 |    173992  |      199399
       10  | 44:18.50 |  0:17.12 |    199400  |      200686
       11  | 44:35.62 |  5:07.25 |    200687  |      223736
       12  | 49:43.12 |  3:58.55 |    223737  |      241641
       13  | 53:41.67 |  2:57.48 |    241642  |      254964
       14  | 56:39.40 |  4:23.14 |    254965  |      274703
Range status and errors
Selected range
   Filename J:\Psychopomps - First Blood\CDImage.wav
   Peak level 93.8 %
   Range quality 100.0 %
   Test CRC B192408B
   Copy CRC B192408B
   Copy OK
No errors occurred
AccurateRip summary
Track  1  accurately ripped (confidence 4)  [07BFA43C]
Track  2  accurately ripped (confidence 4)  [6D799B09]
Track  3  accurately ripped (confidence 4)  [EE1AC259]
Track  4  accurately ripped (confidence 4)  [87DCD028]
Track  5  accurately ripped (confidence 4)  [10DBAF8A]
Track  6  accurately ripped (confidence 4)  [DCD8BD8C]
Track  7  accurately ripped (confidence 4)  [722D5759]
Track  8  accurately ripped (confidence 4)  [31BC2DFA]
Track  9  accurately ripped (confidence 4)  [D2B26B82]
Track 10  accurately ripped (confidence 4)  [1685AB5B]
Track 11  accurately ripped (confidence 4)  [ADE2711F]
Track 12  accurately ripped (confidence 4)  [EF7BCDD4]
Track 13  accurately ripped (confidence 4)  [0F8808DB]
Track 14  accurately ripped (confidence 4)  [9E0F8FAE]
All tracks accurately ripped
End of status report
Код:
AUDIOCHECKER v2.0 beta (build 457) - by Dester - opdester@freemail.hu
~~~~~~~~~~~~~~~~~~~~~~~~~~~~~~~~~~
-=== DO NOT EDIT THIS FILE! ===-
Path: ...\Psychopomps - First Blood
01 -=- CDImage.wav -=- CDDA (100%)
190127764
Правила, инструкции, FAQ!!!
Торрент  Добавлен [26 июн 2020, 17:11] Скачать торрент Магнет ссылка
Скачать торрент
[ Размер 16.45 КБ / Просмотров 3 ]

Статус
Проверен 
 
Размер  399.09 МБ
Приватный: Нет (DHT включён)
.torrent скачан  0
 


     Отправить личное сообщение
   
Страница 1 из 1
Показать сообщения за:  Поле сортировки  
Начать новую тему Ответить на тему


Сейчас этот форум просматривают: нет зарегистрированных пользователей и гости: 0


Вы не можете начинать темы
Вы не можете отвечать на сообщения
Вы не можете редактировать свои сообщения
Вы не можете удалять свои сообщения
Вы не можете добавлять вложения

Перейти:  
cron