Начать новую тему Ответить на тему
Статистика раздачи
Размер: 521.68 МБ | Добавлен: 26 июн 2020, 18:54 | Скачали: 0
Сидеров: 0  [0 байт/сек]    Личеров: 0  [0 байт/сек]
Пред. тема | След. тема 

Автор
Сообщение

СообщениеДобавлено: 26 июн 2020, 18:54 

Ответить с цитатой 

Necrotek - Menschenfeind
Жанр: Industrial / Dark Electro
Год выпуска диска: 2009
Производитель диска: US
Аудио кодек: APE
Тип рипа: image+.cue
Битрейт аудио: lossless
Продолжительность: 78:37
Трэклист:
1 Drugsick (3:55)
2 Back To The Grave (5:07)
3 Menschenfeind (5:27)
4 Sense Of Decay (5:37)
5 200666 (Misanthropik Mix) (5:41)
6 Wish You Were Dead (Psychic Murder Mix) (4:17)
7 Satanik (Satan Was An Acid Head Mix) (5:00)
8 Human Waste (3:42)
9 Beat Yourself Dead (4:46)
10 Ghosted (4:36)
11 Back To The Grave (RMX) (4:15)
Remix - Terror Punk Syndicate
12 Beat Yourself Dead (Brain Leisure RMX) (4:13)
Remix - Brain Leisure
13 Ghosted (Neon Cage Experiment RMX) (4:55)
Remix - Neon Cage Experiment
14 Back To The Grave (Emitted Remix By LIOB) (4:54)
Remix - LIOB
15 Ghosted (Zero Up RMX By Terminal State) (4:10)
Remix - Terminal State
16 Human Waste (Experiment Haywire RMX) (3:55)
Remix - Experiment Haywire
17 Wish You Dead (Noizekatt RMX) (3:05)
Remix - Noizekatt
Доп. информация: Vendetta Music; VM0012
Код:
Exact Audio Copy V0.99 prebeta 4 from 23. January 2008
EAC extraction logfile from 19. April 2009, 0:22
Necrotek / Menschenfeind
Used drive  : TEAC    DV-W520GS   Adapter: 5  ID: 0
Read mode               : Secure
Utilize accurate stream : Yes
Defeat audio cache      : Yes
Make use of C2 pointers : No
Read offset correction                      : 6
Overread into Lead-In and Lead-Out          : No
Fill up missing offset samples with silence : Yes
Delete leading and trailing silent blocks   : No
Null samples used in CRC calculations       : Yes
Used interface                              : Installed external ASPI interface
Used output format : Internal WAV Routines
Sample format      : 44.100 Hz; 16 Bit; Stereo
TOC of the extracted CD
     Track |   Start  |  Length  | Start sector | End sector
    ---------------------------------------------------------
        1  |  0:00.00 |  3:54.71 |         0    |    17620
        2  |  3:54.71 |  5:06.48 |     17621    |    40618
        3  |  9:01.44 |  5:26.57 |     40619    |    65125
        4  | 14:28.26 |  5:37.06 |     65126    |    90406
        5  | 20:05.32 |  5:41.12 |     90407    |   115993
        6  | 25:46.44 |  4:17.23 |    115994    |   135291
        7  | 30:03.67 |  4:59.59 |    135292    |   157775
        8  | 35:03.51 |  3:42.35 |    157776    |   174460
        9  | 38:46.11 |  4:45.70 |    174461    |   195905
       10  | 43:32.06 |  4:35.43 |    195906    |   216573
       11  | 48:07.49 |  4:14.69 |    216574    |   235692
       12  | 52:22.43 |  4:12.49 |    235693    |   254641
       13  | 56:35.17 |  4:54.39 |    254642    |   276730
       14  | 61:29.56 |  4:53.67 |    276731    |   298772
       15  | 66:23.48 |  4:59.03 |    298773    |   321200
       16  | 71:22.51 |  4:09.41 |    321201    |   339916
       17  | 75:32.17 |  3:04.58 |    339917    |   353774
Range status and errors
Selected range
   Filename K:\Necrotek - Menschenfeind\CDImage.wav
   Peak level 98.9 %
   Range quality 100.0 %
   Test CRC 0E5B0B2D
   Copy CRC 0E5B0B2D
   Copy OK
No errors occurred
AccurateRip summary
Track  1  not present in database
Track  2  not present in database
Track  3  not present in database
Track  4  not present in database
Track  5  not present in database
Track  6  not present in database
Track  7  not present in database
Track  8  not present in database
Track  9  not present in database
Track 10  not present in database
Track 11  not present in database
Track 12  not present in database
Track 13  not present in database
Track 14  not present in database
Track 15  not present in database
Track 16  not present in database
Track 17  not present in database
None of the tracks are present in the AccurateRip database
End of status report
Код:
AUDIOCHECKER v2.0 beta (build 457) - by Dester - opdester@freemail.hu
~~~~~~~~~~~~~~~~~~~~~~~~~~~~~~~~~~
-=== DO NOT EDIT THIS FILE! ===-
Path: ...\Necrotek - Menschenfeind
01 -=- CDImage.wav -=- CDDA (100%)
190127764
Cканы в комплекте.
Не забываем про спасибы
Правила, инструкции, FAQ!!!
Торрент  Добавлен [26 июн 2020, 18:54] Скачать торрент Магнет ссылка
Скачать торрент
[ Размер 11 КБ / Просмотров 8 ]

Статус
Проверен 
 
Размер  521.68 МБ
Приватный: Нет (DHT включён)
.torrent скачан  0
 


     Отправить личное сообщение
   
Страница 1 из 1
Показать сообщения за:  Поле сортировки  
Начать новую тему Ответить на тему


Сейчас этот форум просматривают: нет зарегистрированных пользователей и гости: 0


Вы не можете начинать темы
Вы не можете отвечать на сообщения
Вы не можете редактировать свои сообщения
Вы не можете удалять свои сообщения
Вы не можете добавлять вложения

Перейти:  
cron