Начать новую тему Ответить на тему
Статистика раздачи
Размер: 306.55 МБ | Добавлен: 26 июн 2020, 19:43 | Скачали: 0
Сидеров: 0  [0 байт/сек]    Личеров: 0  [0 байт/сек]
Пред. тема | След. тема 

Автор
Сообщение

СообщениеДобавлено: 26 июн 2020, 19:43 

Ответить с цитатой 

Parzival / Casta


Жанр: Industrial, Dark Electro, Gothic, Ambient, Experimental
Носитель
: CD
Год издания: 2014
Издатель (лейбл): Mighty Music
Страна исполнителя (группы): Дания
Аудиокодек: FLAC (*.flac)
Тип рипа: tracks+.cue
Битрейт аудио: lossless
Продолжительность: 00:45:20
Источник (релизер): What.cd
Наличие сканов в содержимом раздачи: нет
Треклист:
01. Kalachakra
02. Kurukshetra Purana
03. Himagni Purana
04. Airyanem Vaejah Purana
05. Uttara Purana
06. Navadi Purana
07. Ayo Purana
08. Rudra Purana
09. Yavashtra Purana
10. Andra Purana
11. Regnabit
Код:
X Lossless Decoder version 20140504 (147.0)
XLD extraction logfile from 2014-09-05 21:39:44 +0100
Parzival / Casta
Used drive : PLEXTOR BD-ROM PX-B120U (revision 1.06)
Media type : Pressed CD
Ripper mode             : XLD Secure Ripper
Disable audio cache     : OK for the drive with a cache less than 1375KiB
Make use of C2 pointers : NO
Read offset correction  : 696
Max retry count         : 20
Gap status              : Analyzed, Appended (except HTOA)
TOC of the extracted CD
     Track |   Start  |  Length  | Start sector | End sector
    ---------------------------------------------------------
        1  | 00:00:00 | 03:07:60 |         0    |    14084
        2  | 03:07:60 | 03:51:60 |     14085    |    31469
        3  | 06:59:45 | 04:32:56 |     31470    |    51925
        4  | 11:32:26 | 04:38:34 |     51926    |    72809
        5  | 16:10:60 | 03:50:48 |     72810    |    90107
        6  | 20:01:33 | 04:21:65 |     90108    |   109747
        7  | 24:23:23 | 04:32:64 |    109748    |   130211
        8  | 28:56:12 | 04:01:03 |    130212    |   148289
        9  | 32:57:15 | 04:35:40 |    148290    |   168954
       10  | 37:32:55 | 04:01:10 |    168955    |   187039
       11  | 41:33:65 | 03:46:15 |    187040    |   204004
AccurateRip Summary
    Disc not found in AccurateRip DB.
All Tracks
    Album gain               : -7.56 dB
    Peak                     : 1.000000
    Statistics
        Read error                           : 0
        Jitter error (maybe fixed)           : 0
        Retry sector count                   : 0
        Damaged sector count                 : 0
Track 01
    Filename : /Volumes/TEMP HDD/TMP Folder/Parzival - Casta (2014)/0101 - Kalachakra.flac
               /Volumes/TEMP HDD/TMP Folder/Parzival - Casta (2014)/0101 - Kalachakra.m4a
               /Volumes/TEMP HDD/TMP Folder/Parzival - Casta (2014)/0101 - Kalachakra.mp3
    Pre-gap length : 00:02:00
    Track gain               : -5.08 dB
    Peak                     : 0.841370
    CRC32 hash (test run)    : F5D38410
    CRC32 hash               : F5D38410
    CRC32 hash (skip zero)   : 5F8B1A60
    AccurateRip v1 signature : 71F0C6B8
    AccurateRip v2 signature : A74DF653
        ->Track not present in AccurateRip database.
    Statistics
        Read error                           : 0
        Jitter error (maybe fixed)           : 0
        Retry sector count                   : 0
        Damaged sector count                 : 0
Track 02
    Filename : /Volumes/TEMP HDD/TMP Folder/Parzival - Casta (2014)/0102 - Kurukshetra Purana.flac
               /Volumes/TEMP HDD/TMP Folder/Parzival - Casta (2014)/0102 - Kurukshetra Purana.m4a
               /Volumes/TEMP HDD/TMP Folder/Parzival - Casta (2014)/0102 - Kurukshetra Purana.mp3
    Track gain               : -7.11 dB
    Peak                     : 1.000000
    CRC32 hash (test run)    : 56D41DC0
    CRC32 hash               : 56D41DC0
    CRC32 hash (skip zero)   : 7AE13754
    AccurateRip v1 signature : 256D32AF
    AccurateRip v2 signature : 7FDAB512
        ->Track not present in AccurateRip database.
    Statistics
        Read error                           : 0
        Jitter error (maybe fixed)           : 0
        Retry sector count                   : 0
        Damaged sector count                 : 0
Track 03
    Filename : /Volumes/TEMP HDD/TMP Folder/Parzival - Casta (2014)/0103 - Himagni Purana.flac
               /Volumes/TEMP HDD/TMP Folder/Parzival - Casta (2014)/0103 - Himagni Purana.m4a
               /Volumes/TEMP HDD/TMP Folder/Parzival - Casta (2014)/0103 - Himagni Purana.mp3
    Track gain               : -6.81 dB
    Peak                     : 1.000000
    CRC32 hash (test run)    : 133CE6F4
    CRC32 hash               : 133CE6F4
    CRC32 hash (skip zero)   : A2879760
    AccurateRip v1 signature : 4BF15732
    AccurateRip v2 signature : 70116139
        ->Track not present in AccurateRip database.
    Statistics
        Read error                           : 0
        Jitter error (maybe fixed)           : 0
        Retry sector count                   : 0
        Damaged sector count                 : 0
Track 04
    Filename : /Volumes/TEMP HDD/TMP Folder/Parzival - Casta (2014)/0104 - Airyanem Vaejah Purana.flac
               /Volumes/TEMP HDD/TMP Folder/Parzival - Casta (2014)/0104 - Airyanem Vaejah Purana.m4a
               /Volumes/TEMP HDD/TMP Folder/Parzival - Casta (2014)/0104 - Airyanem Vaejah Purana.mp3
    Track gain               : -7.29 dB
    Peak                     : 1.000000
    CRC32 hash (test run)    : 2102FE3B
    CRC32 hash               : 2102FE3B
    CRC32 hash (skip zero)   : 4F744426
    AccurateRip v1 signature : 86D8E32A
    AccurateRip v2 signature : 83967000
        ->Track not present in AccurateRip database.
    Statistics
        Read error                           : 0
        Jitter error (maybe fixed)           : 0
        Retry sector count                   : 0
        Damaged sector count                 : 0
Track 05
    Filename : /Volumes/TEMP HDD/TMP Folder/Parzival - Casta (2014)/0105 - Uttara Purana.flac
               /Volumes/TEMP HDD/TMP Folder/Parzival - Casta (2014)/0105 - Uttara Purana.m4a
               /Volumes/TEMP HDD/TMP Folder/Parzival - Casta (2014)/0105 - Uttara Purana.mp3
    Track gain               : -8.23 dB
    Peak                     : 1.000000
    CRC32 hash (test run)    : 3CD7938C
    CRC32 hash               : 3CD7938C
    CRC32 hash (skip zero)   : AB6AFA47
    AccurateRip v1 signature : 125DE530
    AccurateRip v2 signature : 0D7B2CC3
        ->Track not present in AccurateRip database.
    Statistics
        Read error                           : 0
        Jitter error (maybe fixed)           : 0
        Retry sector count                   : 0
        Damaged sector count                 : 0
Track 06
    Filename : /Volumes/TEMP HDD/TMP Folder/Parzival - Casta (2014)/0106 - Navadi Purana.flac
               /Volumes/TEMP HDD/TMP Folder/Parzival - Casta (2014)/0106 - Navadi Purana.m4a
               /Volumes/TEMP HDD/TMP Folder/Parzival - Casta (2014)/0106 - Navadi Purana.mp3
    Track gain               : -8.08 dB
    Peak                     : 1.000000
    CRC32 hash (test run)    : FF3034A6
    CRC32 hash               : FF3034A6
    CRC32 hash (skip zero)   : F5B93642
    AccurateRip v1 signature : 5AC7C26D
    AccurateRip v2 signature : 61438B97
        ->Track not present in AccurateRip database.
    Statistics
        Read error                           : 0
        Jitter error (maybe fixed)           : 0
        Retry sector count                   : 0
        Damaged sector count                 : 0
Track 07
    Filename : /Volumes/TEMP HDD/TMP Folder/Parzival - Casta (2014)/0107 - Ayo Purana.flac
               /Volumes/TEMP HDD/TMP Folder/Parzival - Casta (2014)/0107 - Ayo Purana.m4a
               /Volumes/TEMP HDD/TMP Folder/Parzival - Casta (2014)/0107 - Ayo Purana.mp3
    Track gain               : -6.57 dB
    Peak                     : 1.000000
    CRC32 hash (test run)    : 4A190D2B
    CRC32 hash               : 4A190D2B
    CRC32 hash (skip zero)   : 4CFBB194
    AccurateRip v1 signature : 43B64CAF
    AccurateRip v2 signature : B3C42E8B
        ->Track not present in AccurateRip database.
    Statistics
        Read error                           : 0
        Jitter error (maybe fixed)           : 0
        Retry sector count                   : 0
        Damaged sector count                 : 0
Track 08
    Filename : /Volumes/TEMP HDD/TMP Folder/Parzival - Casta (2014)/0108 - Rudra Purana.flac
               /Volumes/TEMP HDD/TMP Folder/Parzival - Casta (2014)/0108 - Rudra Purana.m4a
               /Volumes/TEMP HDD/TMP Folder/Parzival - Casta (2014)/0108 - Rudra Purana.mp3
    Track gain               : -7.71 dB
    Peak                     : 1.000000
    CRC32 hash (test run)    : D2369857
    CRC32 hash               : D2369857
    CRC32 hash (skip zero)   : 8F11A5F2
    AccurateRip v1 signature : 00B85293
    AccurateRip v2 signature : D712665B
        ->Track not present in AccurateRip database.
    Statistics
        Read error                           : 0
        Jitter error (maybe fixed)           : 0
        Retry sector count                   : 0
        Damaged sector count                 : 0
Track 09
    Filename : /Volumes/TEMP HDD/TMP Folder/Parzival - Casta (2014)/0109 - Yavashtra Purana.flac
               /Volumes/TEMP HDD/TMP Folder/Parzival - Casta (2014)/0109 - Yavashtra Purana.m4a
               /Volumes/TEMP HDD/TMP Folder/Parzival - Casta (2014)/0109 - Yavashtra Purana.mp3
    Track gain               : -8.56 dB
    Peak                     : 1.000000
    CRC32 hash (test run)    : 5D50CF2B
    CRC32 hash               : 5D50CF2B
    CRC32 hash (skip zero)   : 161BDE33
    AccurateRip v1 signature : 3CEE3F1F
    AccurateRip v2 signature : 821FBBED
        ->Track not present in AccurateRip database.
    Statistics
        Read error                           : 0
        Jitter error (maybe fixed)           : 0
        Retry sector count                   : 0
        Damaged sector count                 : 0
Track 10
    Filename : /Volumes/TEMP HDD/TMP Folder/Parzival - Casta (2014)/0110 - Andra Purana.flac
               /Volumes/TEMP HDD/TMP Folder/Parzival - Casta (2014)/0110 - Andra Purana.m4a
               /Volumes/TEMP HDD/TMP Folder/Parzival - Casta (2014)/0110 - Andra Purana.mp3
    Track gain               : -6.26 dB
    Peak                     : 1.000000
    CRC32 hash (test run)    : FD889415
    CRC32 hash               : FD889415
    CRC32 hash (skip zero)   : 85C419DB
    AccurateRip v1 signature : 09BDF9BB
    AccurateRip v2 signature : 87A1FFC6
        ->Track not present in AccurateRip database.
    Statistics
        Read error                           : 0
        Jitter error (maybe fixed)           : 0
        Retry sector count                   : 0
        Damaged sector count                 : 0
Track 11
    Filename : /Volumes/TEMP HDD/TMP Folder/Parzival - Casta (2014)/0111 - Regnabit.flac
               /Volumes/TEMP HDD/TMP Folder/Parzival - Casta (2014)/0111 - Regnabit.m4a
               /Volumes/TEMP HDD/TMP Folder/Parzival - Casta (2014)/0111 - Regnabit.mp3
    Track gain               : -8.08 dB
    Peak                     : 1.000000
    CRC32 hash (test run)    : CD70A4E5
    CRC32 hash               : CD70A4E5
    CRC32 hash (skip zero)   : B20DCAF6
    AccurateRip v1 signature : 22038774
    AccurateRip v2 signature : EC7A8559
        ->Track not present in AccurateRip database.
    Statistics
        Read error                           : 0
        Jitter error (maybe fixed)           : 0
        Retry sector count                   : 0
        Damaged sector count                 : 0
No errors occurred
End of status report
-----BEGIN XLD SIGNATURE-----
9XjBJlDQOmfwlfbCRIjlvWXfHGb3SlXgKpePElcmJh.Yh4C5kZvnLkC1IsrETj77F7Tyj7L60YLv0YATVn0HYMUaDfPt0ba4Ts_UFuW
-----END XLD SIGNATURE-----
Код:
TITLE "Casta"
PERFORMER "Parzival"
REM GENRE "Darkwave"
REM DATE "2014"
REM DISCNUMBER 1
REM TOTALDISCS 1
REM DISCID A40AA00B
REM REPLAYGAIN_ALBUM_GAIN -7.56 dB
REM REPLAYGAIN_ALBUM_PEAK 1.000000
FILE "0101 - Kalachakra.flac" WAVE
  TRACK 01 AUDIO
    TITLE "Kalachakra"
    PERFORMER "Parzival"
    ISRC DKQ4A1306901
    REM REPLAYGAIN_TRACK_GAIN -5.08 dB
    REM REPLAYGAIN_TRACK_PEAK 0.841370
    INDEX 01 00:00:00
FILE "0102 - Kurukshetra Purana.flac" WAVE
  TRACK 02 AUDIO
    TITLE "Kurukshetra Purana"
    PERFORMER "Parzival"
    ISRC DKQ4A1306902
    REM REPLAYGAIN_TRACK_GAIN -7.11 dB
    REM REPLAYGAIN_TRACK_PEAK 1.000000
    INDEX 01 00:00:00
FILE "0103 - Himagni Purana.flac" WAVE
  TRACK 03 AUDIO
    TITLE "Himagni Purana"
    PERFORMER "Parzival"
    ISRC DKQ4A1306903
    REM REPLAYGAIN_TRACK_GAIN -6.81 dB
    REM REPLAYGAIN_TRACK_PEAK 1.000000
    INDEX 01 00:00:00
FILE "0104 - Airyanem Vaejah Purana.flac" WAVE
  TRACK 04 AUDIO
    TITLE "Airyanem Vaejah Purana"
    PERFORMER "Parzival"
    ISRC DKQ4A1306904
    REM REPLAYGAIN_TRACK_GAIN -7.29 dB
    REM REPLAYGAIN_TRACK_PEAK 1.000000
    INDEX 01 00:00:00
FILE "0105 - Uttara Purana.flac" WAVE
  TRACK 05 AUDIO
    TITLE "Uttara Purana"
    PERFORMER "Parzival"
    ISRC DKQ4A1306905
    REM REPLAYGAIN_TRACK_GAIN -8.23 dB
    REM REPLAYGAIN_TRACK_PEAK 1.000000
    INDEX 01 00:00:00
FILE "0106 - Navadi Purana.flac" WAVE
  TRACK 06 AUDIO
    TITLE "Navadi Purana"
    PERFORMER "Parzival"
    ISRC DKQ4A1306906
    REM REPLAYGAIN_TRACK_GAIN -8.08 dB
    REM REPLAYGAIN_TRACK_PEAK 1.000000
    INDEX 01 00:00:00
FILE "0107 - Ayo Purana.flac" WAVE
  TRACK 07 AUDIO
    TITLE "Ayo Purana"
    PERFORMER "Parzival"
    ISRC DKQ4A1306907
    REM REPLAYGAIN_TRACK_GAIN -6.57 dB
    REM REPLAYGAIN_TRACK_PEAK 1.000000
    INDEX 01 00:00:00
FILE "0108 - Rudra Purana.flac" WAVE
  TRACK 08 AUDIO
    TITLE "Rudra Purana"
    PERFORMER "Parzival"
    ISRC DKQ4A1306908
    REM REPLAYGAIN_TRACK_GAIN -7.71 dB
    REM REPLAYGAIN_TRACK_PEAK 1.000000
    INDEX 01 00:00:00
FILE "0109 - Yavashtra Purana.flac" WAVE
  TRACK 09 AUDIO
    TITLE "Yavashtra Purana"
    PERFORMER "Parzival"
    ISRC DKQ4A1306909
    REM REPLAYGAIN_TRACK_GAIN -8.56 dB
    REM REPLAYGAIN_TRACK_PEAK 1.000000
    INDEX 01 00:00:00
FILE "0110 - Andra Purana.flac" WAVE
  TRACK 10 AUDIO
    TITLE "Andra Purana"
    PERFORMER "Parzival"
    ISRC DKQ4A1306910
    REM REPLAYGAIN_TRACK_GAIN -6.26 dB
    REM REPLAYGAIN_TRACK_PEAK 1.000000
    INDEX 01 00:00:00
FILE "0111 - Regnabit.flac" WAVE
  TRACK 11 AUDIO
    TITLE "Regnabit"
    PERFORMER "Parzival"
    ISRC DKQ4A1306911
    REM REPLAYGAIN_TRACK_GAIN -8.08 dB
    REM REPLAYGAIN_TRACK_PEAK 1.000000
    INDEX 01 00:00:00
Правила, инструкции, FAQ!!!
Торрент  Добавлен [26 июн 2020, 19:43] Скачать торрент Магнет ссылка
Скачать торрент
[ Размер 13.14 КБ / Просмотров 12 ]

Статус
Проверен 
 
Размер  306.55 МБ
Приватный: Нет (DHT включён)
.torrent скачан  0
 


     Отправить личное сообщение
   
Страница 1 из 1
Показать сообщения за:  Поле сортировки  
Начать новую тему Ответить на тему


Сейчас этот форум просматривают: нет зарегистрированных пользователей и гости: 0


Вы не можете начинать темы
Вы не можете отвечать на сообщения
Вы не можете редактировать свои сообщения
Вы не можете удалять свои сообщения
Вы не можете добавлять вложения

Перейти:  
cron