Начать новую тему Ответить на тему
Статистика раздачи
Размер: 400.67 МБ | Добавлен: 26 июн 2020, 17:37 | Скачали: 0
Сидеров: 0  [0 байт/сек]    Личеров: 0  [0 байт/сек]
Пред. тема | След. тема 

Автор
Сообщение

СообщениеДобавлено: 26 июн 2020, 17:37 

Ответить с цитатой 

Vampire Rodents / Lullaby Land
Жанр: Industrial, Dark Electro, Experimental
Страна-производитель диска: US
Год издания: 1994
Издатель (лейбл): Re-Constriction Records
Номер по каталогу: REC-008
Страна: Canada
Аудиокодек: FLAC (*.flac)
Тип рипа: tracks+.cue
Битрейт аудио: lossless
Продолжительность: 73:00
Источник (релизер): waffles.fm
Наличие сканов в содержимом раздачи: нет
Треклист:
1 Trilobite 4:45
2 Catacomb 4:05
3 Crib Death 4:23
4 Dogchild 3:26
5 Gargoyles 3:54
6 Grace 4:34
7 Tremulous 0:55
8 Glow Worm 2:25
9 Lullaby Land 3:06
10 Dervish 3:57
11 Scavenger 5:08
12 Exuviate 5:13
13 Akrotiri 4:13
14 Toten Faschist 2:27
15 Nosedive 3:09
16 Bosch Erotique 2:19
17 Hubba Hubba 1:48
18 Cartouche 1:55
19 Awaken 1:46
20 Raga Rodentia 5:45
21 Passage 3:39
Код:
Exact Audio Copy V0.99 prebeta 5 from 4. May 2009
EAC extraction logfile from 28. November 2009, 18:53
Vampire Rodents / Lullaby Land
Used drive  : BENQ    DVD DD DW1650   Adapter: 0  ID: 1
Read mode               : Secure
Utilize accurate stream : Yes
Defeat audio cache      : Yes
Make use of C2 pointers : No
Read offset correction                      : 618
Overread into Lead-In and Lead-Out          : No
Fill up missing offset samples with silence : Yes
Delete leading and trailing silent blocks   : No
Null samples used in CRC calculations       : Yes
Used interface                              : Native Win32 interface for Win NT & 2000
Gap handling                                : Appended to previous track
Used output format              : User Defined Encoder
Selected bitrate                : 768 kBit/s
Quality                         : High
Add ID3 tag                     : No
Command line compressor         : C:\Program Files\Exact Audio Copy\Flac\flac.exe
Additional command line options : -V -8 -T "artist=%a" -T "title=%t" -T "album=%g" -T "date=%y" -T "tracknumber=%n" -T "genre=%m" %s
TOC of the extracted CD
     Track |   Start  |  Length  | Start sector | End sector
    ---------------------------------------------------------
        1  |  0:00.00 |  4:45.00 |         0    |    21374
        2  |  4:45.00 |  4:05.70 |     21375    |    39819
        3  |  8:50.70 |  4:23.40 |     39820    |    59584
        4  | 13:14.35 |  3:26.35 |     59585    |    75069
        5  | 16:40.70 |  3:54.05 |     75070    |    92624
        6  | 20:35.00 |  4:34.57 |     92625    |   113231
        7  | 25:09.57 |  0:55.05 |    113232    |   117361
        8  | 26:04.62 |  2:25.73 |    117362    |   128309
        9  | 28:30.60 |  3:06.22 |    128310    |   142281
       10  | 31:37.07 |  3:57.25 |    142282    |   160081
       11  | 35:34.32 |  5:08.40 |    160082    |   183221
       12  | 40:42.72 |  5:13.00 |    183222    |   206696
       13  | 45:55.72 |  4:13.10 |    206697    |   225681
       14  | 50:09.07 |  2:27.73 |    225682    |   236779
       15  | 52:37.05 |  3:09.22 |    236780    |   250976
       16  | 55:46.27 |  2:19.08 |    250977    |   261409
       17  | 58:05.35 |  1:48.07 |    261410    |   269516
       18  | 59:53.42 |  1:55.35 |    269517    |   278176
       19  | 61:49.02 |  1:46.38 |    278177    |   286164
       20  | 63:35.40 |  5:45.17 |    286165    |   312056
       21  | 69:20.57 |  3:39.40 |    312057    |   328521
Track  1
     Filename C:\rip\Vampire Rodents\Lullaby Land\01. Trilobite.wav
     Pre-gap length  0:00:02.00
     Peak level 93.3 %
     Track quality 100.0 %
     Test CRC D1DDB060
     Copy CRC D1DDB060
     Accurately ripped (confidence 1)  [C10227D9]
     Copy OK
Track  2
     Filename C:\rip\Vampire Rodents\Lullaby Land\02. Catacomb.wav
     Pre-gap length  0:00:01.40
     Peak level 98.8 %
     Track quality 100.0 %
     Test CRC 5BBC95BE
     Copy CRC 5BBC95BE
     Accurately ripped (confidence 1)  [A7C9F62B]
     Copy OK
Track  3
     Filename C:\rip\Vampire Rodents\Lullaby Land\03. Crib Death.wav
     Pre-gap length  0:00:02.30
     Peak level 74.2 %
     Track quality 100.0 %
     Test CRC BE3AE355
     Copy CRC BE3AE355
     Accurately ripped (confidence 1)  [0C4A366D]
     Copy OK
Track  4
     Filename C:\rip\Vampire Rodents\Lullaby Land\04. Dogchild.wav
     Pre-gap length  0:00:00.20
     Peak level 98.8 %
     Track quality 100.0 %
     Test CRC 1F932479
     Copy CRC 1F932479
     Accurately ripped (confidence 1)  [4ACB65DE]
     Copy OK
Track  5
     Filename C:\rip\Vampire Rodents\Lullaby Land\05. Gargoyles.wav
     Pre-gap length  0:00:01.43
     Peak level 98.8 %
     Track quality 100.0 %
     Test CRC D89A79C8
     Copy CRC D89A79C8
     Accurately ripped (confidence 1)  [3A714BE6]
     Copy OK
Track  6
     Filename C:\rip\Vampire Rodents\Lullaby Land\06. Grace.wav
     Pre-gap length  0:00:02.03
     Peak level 98.8 %
     Track quality 100.0 %
     Test CRC 840C4B1C
     Copy CRC 840C4B1C
     Accurately ripped (confidence 1)  [6BB6E617]
     Copy OK
Track  7
     Filename C:\rip\Vampire Rodents\Lullaby Land\07. Tremulous.wav
     Pre-gap length  0:00:00.20
     Peak level 88.4 %
     Track quality 100.0 %
     Test CRC B54254E8
     Copy CRC B54254E8
     Accurately ripped (confidence 1)  [03AEA2AD]
     Copy OK
Track  8
     Filename C:\rip\Vampire Rodents\Lullaby Land\08. Glow Worm.wav
     Pre-gap length  0:00:01.00
     Peak level 98.8 %
     Track quality 100.0 %
     Test CRC 9390FA61
     Copy CRC 9390FA61
     Accurately ripped (confidence 1)  [56C2F684]
     Copy OK
Track  9
     Filename C:\rip\Vampire Rodents\Lullaby Land\09. Lullaby Land.wav
     Pre-gap length  0:00:01.60
     Peak level 85.9 %
     Track quality 99.9 %
     Test CRC F0B83168
     Copy CRC F0B83168
     Accurately ripped (confidence 1)  [FC25E45D]
     Copy OK
Track 10
     Filename C:\rip\Vampire Rodents\Lullaby Land\10. Dervish.wav
     Pre-gap length  0:00:01.37
     Peak level 91.6 %
     Track quality 100.0 %
     Test CRC 9D1DB352
     Copy CRC 9D1DB352
     Accurately ripped (confidence 1)  [6EC26B9B]
     Copy OK
Track 11
     Filename C:\rip\Vampire Rodents\Lullaby Land\11. Scavenger.wav
     Pre-gap length  0:00:01.30
     Peak level 95.1 %
     Track quality 100.0 %
     Test CRC 5E9BD58D
     Copy CRC 5E9BD58D
     Accurately ripped (confidence 1)  [0DBBE9B4]
     Copy OK
Track 12
     Filename C:\rip\Vampire Rodents\Lullaby Land\12. Exuviate.wav
     Pre-gap length  0:00:02.07
     Peak level 82.4 %
     Track quality 100.0 %
     Test CRC 1F613F1B
     Copy CRC 1F613F1B
     Accurately ripped (confidence 1)  [BFB83FC9]
     Copy OK
Track 13
     Filename C:\rip\Vampire Rodents\Lullaby Land\13. Akrotiri.wav
     Pre-gap length  0:00:01.45
     Peak level 63.9 %
     Track quality 100.0 %
     Test CRC 83E3C107
     Copy CRC 83E3C107
     Accurately ripped (confidence 1)  [8D0DCA7E]
     Copy OK
Track 14
     Filename C:\rip\Vampire Rodents\Lullaby Land\14. Toten Faschist.wav
     Pre-gap length  0:00:02.27
     Peak level 98.8 %
     Track quality 100.0 %
     Test CRC A72C3F4E
     Copy CRC A72C3F4E
     Accurately ripped (confidence 1)  [C5500DCB]
     Copy OK
Track 15
     Filename C:\rip\Vampire Rodents\Lullaby Land\15. Nosedive.wav
     Pre-gap length  0:00:01.55
     Peak level 93.7 %
     Track quality 100.0 %
     Test CRC 91C34A91
     Copy CRC 91C34A91
     Accurately ripped (confidence 1)  [4685CA79]
     Copy OK
Track 16
     Filename C:\rip\Vampire Rodents\Lullaby Land\16. Bosch Erotique.wav
     Pre-gap length  0:00:01.40
     Peak level 68.6 %
     Track quality 100.0 %
     Test CRC 5D382360
     Copy CRC 5D382360
     Accurately ripped (confidence 1)  [1FEE1D4A]
     Copy OK
Track 17
     Filename C:\rip\Vampire Rodents\Lullaby Land\17. Hubba Hubba.wav
     Pre-gap length  0:00:01.38
     Peak level 81.5 %
     Track quality 100.0 %
     Test CRC A9D6D537
     Copy CRC A9D6D537
     Accurately ripped (confidence 1)  [962E123B]
     Copy OK
Track 18
     Filename C:\rip\Vampire Rodents\Lullaby Land\18. Cartouche.wav
     Pre-gap length  0:00:01.42
     Peak level 69.6 %
     Track quality 100.0 %
     Test CRC D7FB606C
     Copy CRC D7FB606C
     Accurately ripped (confidence 1)  [F49B1F98]
     Copy OK
Track 19
     Filename C:\rip\Vampire Rodents\Lullaby Land\19. Awaken.wav
     Pre-gap length  0:00:02.20
     Peak level 98.8 %
     Track quality 100.0 %
     Test CRC EE19E57F
     Copy CRC EE19E57F
     Accurately ripped (confidence 1)  [3AF3374B]
     Copy OK
Track 20
     Filename C:\rip\Vampire Rodents\Lullaby Land\20. Raga Rodentia.wav
     Pre-gap length  0:00:02.25
     Peak level 48.2 %
     Track quality 100.0 %
     Test CRC 43B2B1BF
     Copy CRC 43B2B1BF
     Accurately ripped (confidence 1)  [56665721]
     Copy OK
Track 21
     Filename C:\rip\Vampire Rodents\Lullaby Land\21. Passage.wav
     Pre-gap length  0:00:02.37
     Peak level 17.2 %
     Track quality 99.9 %
     Test CRC FB9524B1
     Copy CRC FB9524B1
     Accurately ripped (confidence 1)  [27FF98B5]
     Copy OK
All tracks accurately ripped
No errors occurred
End of status report
Код:
REM GENRE Electronic
REM DATE 1993
REM DISCID 34111C15
REM COMMENT "ExactAudioCopy v0.99pb5"
PERFORMER "Vampire Rodents"
TITLE "Lullaby Land"
FILE "01. Trilobite.wav" WAVE
  TRACK 01 AUDIO
    TITLE "Trilobite"
    PERFORMER "Vampire Rodents"
    INDEX 01 00:00:00
  TRACK 02 AUDIO
    TITLE "Catacomb"
    PERFORMER "Vampire Rodents"
    FLAGS DCP
    INDEX 00 04:43:35
FILE "02. Catacomb.wav" WAVE
    INDEX 01 00:00:00
  TRACK 03 AUDIO
    TITLE "Crib Death"
    PERFORMER "Vampire Rodents"
    FLAGS DCP
    INDEX 00 04:03:40
FILE "03. Crib Death.wav" WAVE
    INDEX 01 00:00:00
  TRACK 04 AUDIO
    TITLE "Dogchild"
    PERFORMER "Vampire Rodents"
    FLAGS DCP
    INDEX 00 04:23:20
FILE "04. Dogchild.wav" WAVE
    INDEX 01 00:00:00
  TRACK 05 AUDIO
    TITLE "Gargoyles"
    PERFORMER "Vampire Rodents"
    FLAGS DCP
    INDEX 00 03:24:67
FILE "05. Gargoyles.wav" WAVE
    INDEX 01 00:00:00
  TRACK 06 AUDIO
    TITLE "Grace"
    PERFORMER "Vampire Rodents"
    FLAGS DCP
    INDEX 00 03:52:02
FILE "06. Grace.wav" WAVE
    INDEX 01 00:00:00
  TRACK 07 AUDIO
    TITLE "Tremulous"
    PERFORMER "Vampire Rodents"
    FLAGS DCP
    INDEX 00 04:34:37
FILE "07. Tremulous.wav" WAVE
    INDEX 01 00:00:00
  TRACK 08 AUDIO
    TITLE "Glow Worm"
    PERFORMER "Vampire Rodents"
    FLAGS DCP
    INDEX 00 00:54:05
FILE "08. Glow Worm.wav" WAVE
    INDEX 01 00:00:00
  TRACK 09 AUDIO
    TITLE "Lullaby Land"
    PERFORMER "Vampire Rodents"
    FLAGS DCP
    INDEX 00 02:24:13
FILE "09. Lullaby Land.wav" WAVE
    INDEX 01 00:00:00
  TRACK 10 AUDIO
    TITLE "Dervish"
    PERFORMER "Vampire Rodents"
    FLAGS DCP
    INDEX 00 03:04:60
FILE "10. Dervish.wav" WAVE
    INDEX 01 00:00:00
  TRACK 11 AUDIO
    TITLE "Scavenger"
    PERFORMER "Vampire Rodents"
    FLAGS DCP
    INDEX 00 03:55:70
FILE "11. Scavenger.wav" WAVE
    INDEX 01 00:00:00
  TRACK 12 AUDIO
    TITLE "Exuviate"
    PERFORMER "Vampire Rodents"
    FLAGS DCP
    INDEX 00 05:06:33
FILE "12. Exuviate.wav" WAVE
    INDEX 01 00:00:00
  TRACK 13 AUDIO
    TITLE "Akrotiri"
    PERFORMER "Vampire Rodents"
    FLAGS DCP
    INDEX 00 05:11:30
FILE "13. Akrotiri.wav" WAVE
    INDEX 01 00:00:00
  TRACK 14 AUDIO
    TITLE "Toten Faschist"
    PERFORMER "Vampire Rodents"
    FLAGS DCP
    INDEX 00 04:10:58
FILE "14. Toten Faschist.wav" WAVE
    INDEX 01 00:00:00
  TRACK 15 AUDIO
    TITLE "Nosedive"
    PERFORMER "Vampire Rodents"
    FLAGS DCP
    INDEX 00 02:26:18
FILE "15. Nosedive.wav" WAVE
    INDEX 01 00:00:00
  TRACK 16 AUDIO
    TITLE "Bosch Erotique"
    PERFORMER "Vampire Rodents"
    FLAGS DCP
    INDEX 00 03:07:57
FILE "16. Bosch Erotique.wav" WAVE
    INDEX 01 00:00:00
  TRACK 17 AUDIO
    TITLE "Hubba Hubba"
    PERFORMER "Vampire Rodents"
    FLAGS DCP
    INDEX 00 02:17:45
FILE "17. Hubba Hubba.wav" WAVE
    INDEX 01 00:00:00
  TRACK 18 AUDIO
    TITLE "Cartouche"
    PERFORMER "Vampire Rodents"
    FLAGS DCP
    INDEX 00 01:46:40
FILE "18. Cartouche.wav" WAVE
    INDEX 01 00:00:00
  TRACK 19 AUDIO
    TITLE "Awaken"
    PERFORMER "Vampire Rodents"
    FLAGS DCP
    INDEX 00 01:53:15
FILE "19. Awaken.wav" WAVE
    INDEX 01 00:00:00
  TRACK 20 AUDIO
    TITLE "Raga Rodentia"
    PERFORMER "Vampire Rodents"
    FLAGS DCP
    INDEX 00 01:44:13
FILE "20. Raga Rodentia.wav" WAVE
    INDEX 01 00:00:00
  TRACK 21 AUDIO
    TITLE "Passage"
    PERFORMER "Vampire Rodents"
    FLAGS DCP
    INDEX 00 05:42:55
FILE "21. Passage.wav" WAVE
    INDEX 01 00:00:00
Код:
d:\>d:\aucdtect -d/-m0 d:\zzz\*.wav
auCDtect: CD records authenticity detector, version 0.8.2
Copyright (c) 2004 Oleg Berngardt. All rights reserved.
Copyright (c) 2004 Alexander Djourik. All rights reserved.
------------------------------------------------------------
Processing file: [01. Trilobite.wav]
------------------------------------------------------------
This track looks like CDDA with probability 100%
------------------------------------------------------------
Processing file: [02. Catacomb.wav]
------------------------------------------------------------
This track looks like CDDA with probability 100%
------------------------------------------------------------
Processing file: [03. Crib Death.wav]
------------------------------------------------------------
This track looks like CDDA with probability 100%
------------------------------------------------------------
Processing file: [04. Dogchild.wav]
------------------------------------------------------------
This track looks like CDDA with probability 100%
------------------------------------------------------------
Processing file: [05. Gargoyles.wav]
------------------------------------------------------------
This track looks like CDDA with probability 99%
------------------------------------------------------------
Processing file: [06. Grace.wav]
------------------------------------------------------------
This track looks like CDDA with probability 100%
------------------------------------------------------------
Processing file: [07. Tremulous.wav]
------------------------------------------------------------
This track looks like CDDA with probability 100%
------------------------------------------------------------
Processing file: [08. Glow Worm.wav]
------------------------------------------------------------
This track looks like CDDA with probability 100%
------------------------------------------------------------
Processing file: [09. Lullaby Land.wav]
------------------------------------------------------------
This track looks like CDDA with probability 100%
------------------------------------------------------------
Processing file: [10. Dervish.wav]
------------------------------------------------------------
This track looks like CDDA with probability 100%
------------------------------------------------------------
Processing file: [11. Scavenger.wav]
------------------------------------------------------------
This track looks like CDDA with probability 99%
------------------------------------------------------------
Processing file: [12. Exuviate.wav]
------------------------------------------------------------
This track looks like CDDA with probability 100%
------------------------------------------------------------
Processing file: [13. Akrotiri.wav]
------------------------------------------------------------
This track looks like CDDA with probability 100%
------------------------------------------------------------
Processing file: [14. Toten Faschist.wav]
------------------------------------------------------------
This track looks like CDDA with probability 100%
------------------------------------------------------------
Processing file: [15. Nosedive.wav]
------------------------------------------------------------
This track looks like CDDA with probability 99%
------------------------------------------------------------
Processing file: [16. Bosch Erotique.wav]
------------------------------------------------------------
This track looks like CDDA with probability 100%
------------------------------------------------------------
Processing file: [17. Hubba Hubba.wav]
------------------------------------------------------------
This track looks like CDDA with probability 100%
------------------------------------------------------------
Processing file: [18. Cartouche.wav]
------------------------------------------------------------
This track looks like CDDA with probability 100%
------------------------------------------------------------
Processing file: [19. Awaken.wav]
------------------------------------------------------------
This track looks like CDDA with probability 100%
------------------------------------------------------------
Processing file: [20. Raga Rodentia.wav]
------------------------------------------------------------
This track looks like CDDA with probability 100%
------------------------------------------------------------
Processing file: [21. Passage.wav]
------------------------------------------------------------
This track looks like CDDA with probability 99%
------------------------------------------------------------
Final Conclusion:
------------------------------------------------------------
These tracks looks like CDDA with probability 100%
d:\>del d:\zzz\*.wav
Cello, Violin – Andrea Akastia
Guitar – Anton Rathausen
Percussion – Jing Laoshu
Sampler, Composed By – Daniel Vahnke
Synthesizer – Victor Wulf
Vocals, Lyrics By – Anton Rathausen (tracks: 2 to 4, 6 to 8, 10 to 14, 16 to 21)
Правила, инструкции, FAQ!!!
Торрент  Добавлен [26 июн 2020, 17:37] Скачать торрент Магнет ссылка
Скачать торрент
[ Размер 17.32 КБ / Просмотров 9 ]

Статус
Проверен 
 
Размер  400.67 МБ
Приватный: Нет (DHT включён)
.torrent скачан  0
 


     Отправить личное сообщение
   
Страница 1 из 1
Показать сообщения за:  Поле сортировки  
Начать новую тему Ответить на тему


Сейчас этот форум просматривают: нет зарегистрированных пользователей и гости: 0


Вы не можете начинать темы
Вы не можете отвечать на сообщения
Вы не можете редактировать свои сообщения
Вы не можете удалять свои сообщения
Вы не можете добавлять вложения

Перейти:  
cron