Начать новую тему Ответить на тему
Статистика раздачи
Размер: 411.79 МБ | Добавлен: 26 июн 2020, 18:55 | Скачали: 0
Сидеров: 0  [0 байт/сек]    Личеров: 0  [0 байт/сек]
Пред. тема | След. тема 

Автор
Сообщение

СообщениеДобавлено: 26 июн 2020, 18:55 

Ответить с цитатой 

Drained Scorn
Release The Hate

Жанр: Industrial / Dark Electro
Страна-производитель диска: Hungary
Год издания: 2009
Издатель (лейбл): Advoxya
Номер по каталогу: ad-hun-32-cd
Страна: Argentina
Аудиокодек: FLAC (*.flac)
Тип рипа: image+.cue
Битрейт аудио: lossless
Продолжительность: 54min 32sec
Источник (релизер): Физический носитель (Собственный рип с оригинального CD).
Наличие сканов в содержимом раздачи: нет
Треклист:
01 Intro 01:22
02 Punishment 05:16
03 Bone Breaker 04:52
04 Time For War 04:47
05 Wrong Sunrise 05:54
06 Last Breath Of Humanity 03:26
07 Ragnarok 06:07
08 If You Trust You Lose 04:39
09 Stick It Your Brain 04:15
10 Judas Is Pregnant 04:27
11 Desecho 04:50
12 If You First You Lose (Remix By Truppenterror) 04:38
Код:
Exact Audio Copy V1.0 beta 3 from 29. August 2011
Отчёт EAC об извлечении, выполненном 13. августа 2012, 17:56
Drained Scorn / Release The Hate
Дисковод: TSSTcorpCDDVDW TS-L633C   Adapter: 0  ID: 0
Режим чтения                 : Достоверность
Использование точного потока : Да
Отключение кэша аудио        : Да
Использование указателей C2  : Нет
Коррекция смещения при чтении                     : 6
Способность читать области Lead-in и Lead-out     : Нет
Заполнение пропущенных сэмплов тишиной            : Да
Удаление блоков с тишиной в начале и конце        : Нет
При вычислениях CRC использовались нулевые сэмплы : Да
Нормализовать до                                  : 98 %
Интерфейс                                         : Встроенный Win32-интерфейс для Win NT/2000
Выходной формат          : Пользовательский кодировщик
Выбранный битрейт        : 128 kBit/s
Качество                 : Высокий
Добавление ID3-тега      : Нет
Утилита сжатия           : C:\Program Files\FLAC\flac.exe
Дополнительные параметры : -V -8 -T "Date=%year%" -T "Genre=%genre%" %source%
TOC извлечённого CD
     Трек |   Старт  | Длительность | Начальный сектор | Конечный сектор
    ---------------------------------------------------------------------
       1  |  0:00.00 |    1:22.33   |           0      |       6182
       2  |  1:22.33 |    5:15.45   |        6183      |      29852
       3  |  6:38.03 |    4:51.55   |       29853      |      51732
       4  | 11:29.58 |    4:46.51   |       51733      |      73233
       5  | 16:16.34 |    5:53.70   |       73234      |      99778
       6  | 22:10.29 |    3:25.35   |       99779      |     115188
       7  | 25:35.64 |    6:06.47   |      115189      |     142685
       8  | 31:42.36 |    4:39.08   |      142686      |     163618
       9  | 36:21.44 |    4:14.69   |      163619      |     182737
      10  | 40:36.38 |    4:26.52   |      182738      |     202739
      11  | 45:03.15 |    4:50.10   |      202740      |     224499
      12  | 49:53.25 |    4:37.73   |      224500      |     245347
Характеристики диапазона извлечения и сообщения об ошибках
Выбранный диапазон
     Имя файла C:\Users\SODOM\Desktop\Drained Scorn - Release The Hate.wav
     Пиковый уровень 100.0 %
     Скорость извлечения 3.6 X
     Качество диапазона 100.0 %
     CRC теста 71A10359
     CRC копии 71A10359
     Копирование... OK
Ошибок не произошло
AccurateRip: сводка
Трек  1  отсутствует в базе данных
Трек  2  отсутствует в базе данных
Трек  3  отсутствует в базе данных
Трек  4  отсутствует в базе данных
Трек  5  отсутствует в базе данных
Трек  6  отсутствует в базе данных
Трек  7  отсутствует в базе данных
Трек  8  отсутствует в базе данных
Трек  9  отсутствует в базе данных
Трек 10  отсутствует в базе данных
Трек 11  отсутствует в базе данных
Трек 12  отсутствует в базе данных
Ни одного трека нет в базе AccurateRip
Конец отчёта
==== Контрольная сумма отчёта 7E1BA5C17A8656EC3C954693BDA33DFDF738C0740A3E9BFE48B729B13BE33DA6 ====
Правила, инструкции, FAQ!!!
Торрент  Добавлен [26 июн 2020, 18:55] Скачать торрент Магнет ссылка
Скачать торрент
[ Размер 16.85 КБ / Просмотров 13 ]

Статус
Проверен 
 
Размер  411.79 МБ
Приватный: Нет (DHT включён)
.torrent скачан  0
 


     Отправить личное сообщение
   
Страница 1 из 1
Показать сообщения за:  Поле сортировки  
Начать новую тему Ответить на тему


Сейчас этот форум просматривают: нет зарегистрированных пользователей и гости: 0


Вы не можете начинать темы
Вы не можете отвечать на сообщения
Вы не можете редактировать свои сообщения
Вы не можете удалять свои сообщения
Вы не можете добавлять вложения

Перейти:  
cron