Начать новую тему Ответить на тему
Статистика раздачи
Размер: 356.19 МБ | Добавлен: 26 июн 2020, 20:44 | Скачали: 0
Сидеров: 0  [0 байт/сек]    Личеров: 0  [0 байт/сек]
Пред. тема | След. тема 

Автор
Сообщение

СообщениеДобавлено: 26 июн 2020, 20:44 

Ответить с цитатой 

Müllér Of Death! - The Book Of Sacrifice
Жанр: Industrial/Dark Ambient/EBM/Techno
Released: 31 Mar 2006
Год выпуска диска: 2007
Страна: Germany
Производитель диска: 2007. Russia. Irond Ltd. under the license from Trisol Music Group GmbH
Label: Trisol Music Group GmbH
Аудио кодек: FLAC
Тип рипа: tracks
Битрейт аудио: lossless
Продолжительность: 48:52
Источник: саморип с лицензии
Трэклист:
1. In Love With J.C. (2:37)
2. The Story Of Herrmann (4:01)
3. Lightning Strikes Twice (3:50)
4. No Woman Allowed (4:19)
5. Maintain Discipline (2:55)
6. Do You Love Your Daddy? (5:38)
7. Alphaman (4:12)
8. Human Doormat (5:12)
9. Contrapositiv (5:09)
10. Total War (4:58)
11. No Woman Allowed (Samsas Traum Remix) (5:34)
Доп. информация:
Exact Audio Copy V0.99 prebeta 4 from 23. January 2008
EAC extraction logfile from 5. June 2008, 22:01
Muller Of Death! / The Book Of Sacrifice
Used drive : PIONEER DVD-RW DVR-212 Adapter: 5 ID: 0
Read mode : Secure
Utilize accurate stream : Yes
Defeat audio cache : Yes
Make use of C2 pointers : No
Read offset correction : 48
Overread into Lead-In and Lead-Out : No
Fill up missing offset samples with silence : Yes
Delete leading and trailing silent blocks : No
Null samples used in CRC calculations : Yes
Used interface : Native Win32 interface for Win NT & 2000
Used output format : Internal WAV Routines
Sample format : 44.100 Hz; 16 Bit; Stereo
TOC of the extracted CD
Track | Start | Length | Start sector | End sector
---------------------------------------------------------
1 | 0:00.00 | 2:37.02 | 0 | 11776
2 | 2:37.02 | 4:01.01 | 11777 | 29852
3 | 6:38.03 | 3:50.39 | 29853 | 47141
4 | 10:28.42 | 4:19.07 | 47142 | 66573
5 | 14:47.49 | 2:55.61 | 66574 | 79759
6 | 17:43.35 | 5:38.55 | 79760 | 105164
7 | 23:22.15 | 4:12.31 | 105165 | 124095
8 | 27:34.46 | 5:12.03 | 124096 | 147498
9 | 32:46.49 | 5:09.11 | 147499 | 170684
10 | 37:55.60 | 4:58.24 | 170685 | 193058
11 | 42:54.09 | 5:34.63 | 193059 | 218171
Range status and errors
Selected range
Filename C:\Documents and Settings\hiekka\Рабочий стол\eac rips\Muller Of Death!\Muller Of Death! - The Book Of Sacrifice.wav
Peak level 97.7 %
Range quality 100.0 %
Test CRC 252C38DA
Copy CRC 252C38DA
Copy OK
No errors occurred
AccurateRip summary
Track 1 not present in database
Track 2 not present in database
Track 3 not present in database
Track 4 not present in database
Track 5 not present in database
Track 6 not present in database
Track 7 not present in database
Track 8 not present in database
Track 9 not present in database
Track 10 not present in database
Track 11 not present in database
None of the tracks are present in the AccurateRip database
End of status report
Дуэт Muller Of Death! из Берлина существует уже более десяти лет, они пережили немало перемен в музыкальном и кадровом отношениях, но только выступление с Genocide Organ и Coil в 2004 году заставило публику заговорить о них. С тех пор это одна из самых уважаемых местных групп в стиле Industrial / Electro, что не ускользнуло от внимания лейбла Trisol Music Group. С дуэтом был заключен контракт и результатом этого сотрудничества стал выход альбома 'The Book Of Sacrifice' (2006). Здесь немецкий дуэт удачно совместил в своем творчестве типичный индустриальный звук с элементами дарк эмбиента, техно и ebm. 10 композиций, включая кавер Non "Total War" и ремикс от Samsas Traum!
http://www.muellerofdeath.com/main_content.html
http://irond.ru/titles/muller_of_death__the_book_of_sacrifice.html
http://www.discogs.com/release/717876
41мб сканов
Правила, инструкции, FAQ!!!
Торрент  Добавлен [26 июн 2020, 20:44] Скачать торрент Магнет ссылка
Скачать торрент
[ Размер 15.56 КБ / Просмотров 5 ]

Статус
Проверен 
 
Размер  356.19 МБ
Приватный: Нет (DHT включён)
.torrent скачан  0
 


     Отправить личное сообщение
   
Страница 1 из 1
Показать сообщения за:  Поле сортировки  
Начать новую тему Ответить на тему


Сейчас этот форум просматривают: нет зарегистрированных пользователей и гости: 0


Вы не можете начинать темы
Вы не можете отвечать на сообщения
Вы не можете редактировать свои сообщения
Вы не можете удалять свои сообщения
Вы не можете добавлять вложения

Перейти:  
cron