Начать новую тему Ответить на тему
Статистика раздачи
Размер: 255.44 МБ | Добавлен: 26 июн 2020, 19:07 | Скачали: 0
Сидеров: 0  [0 байт/сек]    Личеров: 0  [0 байт/сек]
Пред. тема | След. тема 

Автор
Сообщение

СообщениеДобавлено: 26 июн 2020, 19:07 

Ответить с цитатой 

Christ Analogue - In Radiant Decay
Жанр: Industrial
Год выпуска диска: 1997
Производитель диска: USA
Аудио кодек: FLAC
Тип рипа: tracks+.cue
Битрейт аудио: lossless
Продолжительность: 38:21
Источник: What.cd
Трэклист:
1. No Daughter Icon
2. This Shall Not Breath
3. Optima
4. Grain
5. Cradle And Debase
6. Wear
7. Rigor
8. Unclean
9. Cold Magnetic Sun
Внимание! Все выложенные здесь материалы предоставлены исключительно в целях ознакомления! После ознакомления с материалами Вы обязаны их удалить! Если Вы хотите пользоваться данным материалом в дальнейшем – Вы должны приобрести лицензионный диск.
Пишите мнения об альбоме, пожелания, жмите [+] и "Спасибо" (Вам не сложно, а мне приятно).
Код:
X Lossless Decoder version 20090924 (109.9)
XLD extraction logfile from 2009-10-11 20:53:52 +1100
Christ Analogue / In Radiant Decay
Used drive : MATSHITA CD-RW  CW-8121C (revision DBAD)
Use cdparanoia mode     : YES (CDParanoia III 10.2 engine)
Disable audio cache     : OK for the drive with cache less than 2750KB
Make use of C2 pointers : NO
Read offset correction  : 103
Max retry count         : 100
TOC of the extracted CD
     Track |   Start  |  Length  | Start sector | End sector
    ---------------------------------------------------------
        1  | 00:00:00 | 04:00:42 |         0    |    18041
        2  | 04:00:42 | 04:04:23 |     18042    |    36364
        3  | 08:04:65 | 04:17:60 |     36365    |    55699
        4  | 12:22:50 | 04:28:60 |     55700    |    75859
        5  | 16:51:35 | 03:51:65 |     75860    |    93249
        6  | 20:43:25 | 03:54:12 |     93250    |   110811
        7  | 24:37:37 | 04:05:28 |    110812    |   129214
        8  | 28:42:65 | 05:15:10 |    129215    |   152849
        9  | 33:58:00 | 04:22:70 |    152850    |   172569
List of alternate offset correction values
        #  | Absolute | Relative | Confidence
    ------------------------------------------
        1  |    102   |     -1   |      9
Track 01
    Filename : /Users/Cat/Desktop/FLAC/01 Christ Analogue - No Daughter Icon.flac
    CRC32 hash (test run)  : C38C0337
    CRC32 hash             : C38C0337
    CRC32 hash (skip zero) : 4BEDCC25
    AccurateRip signature  : 7F0C7297
        ->Accurately ripped! (confidence 8)
          (matched with the different offset correction value;
           calculated using an additional offset of -1;
           the signature after correction is: CA7F8B6B)
    Statistics
        Read error                           : 0
        Skipped (treated as error)           : 0
        Edge jitter error (maybe fixed)      : 0
        Atom jitter error (maybe fixed)      : 0
        Drift error (maybe fixed)            : 0
        Dropped bytes error (maybe fixed)    : 0
        Duplicated bytes error (maybe fixed) : 0
Track 02
    Filename : /Users/Cat/Desktop/FLAC/02 Christ Analogue - This Shall Not Breathe.flac
    CRC32 hash (test run)  : 3D7A5E5D
    CRC32 hash             : 3D7A5E5D
    CRC32 hash (skip zero) : EE87EC3B
    AccurateRip signature  : 6B3EDDCE
        ->Accurately ripped! (confidence 8)
          (matched with the different offset correction value;
           calculated using an additional offset of -1;
           the signature after correction is: F1B8B9B8)
    Statistics
        Read error                           : 0
        Skipped (treated as error)           : 0
        Edge jitter error (maybe fixed)      : 0
        Atom jitter error (maybe fixed)      : 0
        Drift error (maybe fixed)            : 0
        Dropped bytes error (maybe fixed)    : 0
        Duplicated bytes error (maybe fixed) : 0
Track 03
    Filename : /Users/Cat/Desktop/FLAC/03 Christ Analogue - Optima.flac
    CRC32 hash (test run)  : B9B8B02E
    CRC32 hash             : B9B8B02E
    CRC32 hash (skip zero) : 8DFB1275
    AccurateRip signature  : C9BFD163
        ->Accurately ripped! (confidence 8)
          (matched with the different offset correction value;
           calculated using an additional offset of -1;
           the signature after correction is: 8135E8EB)
    Statistics
        Read error                           : 0
        Skipped (treated as error)           : 0
        Edge jitter error (maybe fixed)      : 0
        Atom jitter error (maybe fixed)      : 2
        Drift error (maybe fixed)            : 0
        Dropped bytes error (maybe fixed)    : 0
        Duplicated bytes error (maybe fixed) : 0
Track 04
    Filename : /Users/Cat/Desktop/FLAC/04 Christ Analogue - Grain.flac
    CRC32 hash (test run)  : 4EEF2A71
    CRC32 hash             : 4EEF2A71
    CRC32 hash (skip zero) : 7F5D76CC
    AccurateRip signature  : 9C13358A
        ->Accurately ripped! (confidence 7)
          (matched with the different offset correction value;
           calculated using an additional offset of -1;
           the signature after correction is: EB1E2459)
    Statistics
        Read error                           : 0
        Skipped (treated as error)           : 0
        Edge jitter error (maybe fixed)      : 0
        Atom jitter error (maybe fixed)      : 0
        Drift error (maybe fixed)            : 0
        Dropped bytes error (maybe fixed)    : 0
        Duplicated bytes error (maybe fixed) : 0
Track 05
    Filename : /Users/Cat/Desktop/FLAC/05 Christ Analogue - Cradle and Debase.flac
    CRC32 hash (test run)  : C76FE6BC
    CRC32 hash             : C76FE6BC
    CRC32 hash (skip zero) : C446555F
    AccurateRip signature  : 25F958C6
        ->Accurately ripped! (confidence 7)
          (matched with the different offset correction value;
           calculated using an additional offset of -1;
           the signature after correction is: 6A176EC6)
    Statistics
        Read error                           : 0
        Skipped (treated as error)           : 0
        Edge jitter error (maybe fixed)      : 0
        Atom jitter error (maybe fixed)      : 0
        Drift error (maybe fixed)            : 0
        Dropped bytes error (maybe fixed)    : 0
        Duplicated bytes error (maybe fixed) : 0
Track 06
    Filename : /Users/Cat/Desktop/FLAC/06 Christ Analogue - Wear.flac
    CRC32 hash (test run)  : 9D20A3B5
    CRC32 hash             : 9D20A3B5
    CRC32 hash (skip zero) : 7AC975BF
    AccurateRip signature  : 79DA13D5
        ->Accurately ripped! (confidence 9)
          (matched with the different offset correction value;
           calculated using an additional offset of -1;
           the signature after correction is: 9461DBA8)
    Statistics
        Read error                           : 0
        Skipped (treated as error)           : 0
        Edge jitter error (maybe fixed)      : 0
        Atom jitter error (maybe fixed)      : 0
        Drift error (maybe fixed)            : 0
        Dropped bytes error (maybe fixed)    : 0
        Duplicated bytes error (maybe fixed) : 0
Track 07
    Filename : /Users/Cat/Desktop/FLAC/07 Christ Analogue - Rigor.flac
    CRC32 hash (test run)  : 87EA8537
    CRC32 hash             : 87EA8537
    CRC32 hash (skip zero) : 3406E5BA
    AccurateRip signature  : 9F5A53B3
        ->Accurately ripped! (confidence 9)
          (matched with the different offset correction value;
           calculated using an additional offset of -1;
           the signature after correction is: E8AF08EC)
    Statistics
        Read error                           : 0
        Skipped (treated as error)           : 0
        Edge jitter error (maybe fixed)      : 0
        Atom jitter error (maybe fixed)      : 0
        Drift error (maybe fixed)            : 0
        Dropped bytes error (maybe fixed)    : 0
        Duplicated bytes error (maybe fixed) : 0
Track 08
    Filename : /Users/Cat/Desktop/FLAC/08 Christ Analogue - Unclean.flac
    CRC32 hash (test run)  : 5F3C34E4
    CRC32 hash             : 5F3C34E4
    CRC32 hash (skip zero) : 5192C234
    AccurateRip signature  : D26327D0
        ->Accurately ripped! (confidence 9)
          (matched with the different offset correction value;
           calculated using an additional offset of -1;
           the signature after correction is: 8C451104)
    Statistics
        Read error                           : 0
        Skipped (treated as error)           : 0
        Edge jitter error (maybe fixed)      : 0
        Atom jitter error (maybe fixed)      : 0
        Drift error (maybe fixed)            : 0
        Dropped bytes error (maybe fixed)    : 0
        Duplicated bytes error (maybe fixed) : 0
Track 09
    Filename : /Users/Cat/Desktop/FLAC/09 Christ Analogue - Cold Magnetic Sun.flac
    CRC32 hash (test run)  : 5F8AF57A
    CRC32 hash             : 5F8AF57A
    CRC32 hash (skip zero) : 1B89899C
    AccurateRip signature  : C11A5FEF
        ->Accurately ripped! (confidence 9)
          (matched with the different offset correction value;
           calculated using an additional offset of -1;
           the signature after correction is: 6B78D004)
    Statistics
        Read error                           : 0
        Skipped (treated as error)           : 0
        Edge jitter error (maybe fixed)      : 0
        Atom jitter error (maybe fixed)      : 0
        Drift error (maybe fixed)            : 0
        Dropped bytes error (maybe fixed)    : 0
        Duplicated bytes error (maybe fixed) : 0
No errors occurred
End of status report
Правила, инструкции, FAQ!!!
Торрент  Добавлен [26 июн 2020, 19:07] Скачать торрент Магнет ссылка
Скачать торрент
[ Размер 21.1 КБ / Просмотров 13 ]

Статус
Проверен 
 
Размер  255.44 МБ
Приватный: Нет (DHT включён)
.torrent скачан  0
 


     Отправить личное сообщение
   
Страница 1 из 1
Показать сообщения за:  Поле сортировки  
Начать новую тему Ответить на тему


Сейчас этот форум просматривают: нет зарегистрированных пользователей и гости: 0


Вы не можете начинать темы
Вы не можете отвечать на сообщения
Вы не можете редактировать свои сообщения
Вы не можете удалять свои сообщения
Вы не можете добавлять вложения

Перейти:  
cron