Начать новую тему Ответить на тему
Статистика раздачи
Размер: 711.79 МБ | Добавлен: 26 июн 2020, 16:48 | Скачали: 0
Сидеров: 0  [0 байт/сек]    Личеров: 0  [0 байт/сек]
Пред. тема | След. тема 

Автор
Сообщение

СообщениеДобавлено: 26 июн 2020, 16:48 

Ответить с цитатой 

Beati Mortui / Let The Funeral Begin
Жанр: EBM, Electro
Страна-производитель диска: Germany
Год издания диска: 2010
Издатель (лейбл): Danse Macabre
Номер по каталогу: BMCD03
Страна: Finland
Аудио кодек: FLAC (*.flac)
Тип рипа: tracks+.cue
Битрейт аудио: lossless
Продолжительность: 42:35 + 52:19
Источник (релизер): 2 x CD-R
Наличие сканов в содержимом раздачи: нет
Треклист:
Cd 1
1-1 Painting...(Intro) 0:55
1-2 Vision Of Hell 4:05
1-3 Prey (Album Version) 3:26
1-4 Let The Funeral Begin 4:49
1-5 Deathrow 3:57
Vocals - Bruno Kramm
1-6 Sanctimonious 3:30
1-7 Soulreaper (Album Version) 4:27
1-8 All Is Good (The Demon) 4:02
1-9 Touch Me Not 4:33
1-10 Alone 3:46
1-11 Musta Surma 3:32
1-12 ...Obsequiae (Outro) 1:39
Cd 2
2-1 Vision Of Hell (Remix By Suicide Commando) 4:47
2-2 Vision Of Hell (Remix By C-Lekktor) 4:19
2-3 Let The Funeral Begin (Remix By Proteus) 6:55
2-4 Let The Funeral Begin (Remix By Kuroshio) 5:45
2-5 Let The Funeral Begin Centhron) 4:47
2-6 Prey (Remix By Erilaz) 4:16
2-7 Prey (Remix By Die Braut) 5:38
2-8 Prey (Remix By Machine Park) 3:30
2-9 Prey (Remix By Eisenfunk) 3:29
2-10 Soulreaper (Remix By Overflow-110) 4:30
2-11 Soulreaper (Remix By Inline.Sex.Terror) 4:27
Код:
Exact Audio Copy V0.99 prebeta 5 from 4. May 2009
EAC extraction logfile from 30. October 2010, 19:58
Beati Mortui / Let the Funeral Begin
Used drive  : PIONEER DVD-RW  DVR-216D   Adapter: 0  ID: 0
Read mode               : Secure
Utilize accurate stream : Yes
Defeat audio cache      : Yes
Make use of C2 pointers : No
Read offset correction                      : 96
Overread into Lead-In and Lead-Out          : No
Fill up missing offset samples with silence : Yes
Delete leading and trailing silent blocks   : No
Null samples used in CRC calculations       : Yes
Used interface                              : Native Win32 interface for Win NT & 2000
Gap handling                                : Appended to previous track
Used output format              : User Defined Encoder
Selected bitrate                : 1024 kBit/s
Quality                         : High
Add ID3 tag                     : No
Command line compressor         : C:\Program Files (x86)\Exact Audio Copy\Flac\flac.exe
Additional command line options : -8 -V -T "ARTIST=%a" -T "TITLE=%t" -T "ALBUM=%g" -T "DATE=%y" -T "TRACKNUMBER=%n" -T "GENRE=%m" -T "COMMENT=EAC FLAC -8" %s
TOC of the extracted CD
     Track |   Start  |  Length  | Start sector | End sector
    ---------------------------------------------------------
        1  |  0:00.00 |  0:55.26 |         0    |     4150
        2  |  0:55.26 |  4:04.45 |      4151    |    22495
        3  |  4:59.71 |  3:26.17 |     22496    |    37962
        4  |  8:26.13 |  4:48.47 |     37963    |    59609
        5  | 13:14.60 |  3:57.07 |     59610    |    77391
        6  | 17:11.67 |  3:29.57 |     77392    |    93123
        7  | 20:41.49 |  4:27.07 |     93124    |   113155
        8  | 25:08.56 |  4:01.45 |    113156    |   131275
        9  | 29:10.26 |  4:33.03 |    131276    |   151753
       10  | 33:43.29 |  3:45.40 |    151754    |   168668
       11  | 37:28.69 |  3:32.10 |    168669    |   184578
       12  | 41:01.04 |  1:38.71 |    184579    |   191999
Track  1
     Filename I:\Audio\TORRENTS\Beati Mortui\Let The Funeral Begin\CD 1\tracks\ 01. Beati Mortui – Painting...(Intro).wav
     Pre-gap length  0:00:02.00
     Peak level 97.9 %
     Track quality 100.0 %
     Test CRC 0F4161DD
     Copy CRC 0F4161DD
     Track not present in AccurateRip database
     Copy OK
Track  2
     Filename I:\Audio\TORRENTS\Beati Mortui\Let The Funeral Begin\CD 1\tracks\ 02. Beati Mortui – Vision of Hell.wav
     Peak level 98.8 %
     Track quality 100.0 %
     Test CRC EC958063
     Copy CRC EC958063
     Track not present in AccurateRip database
     Copy OK
Track  3
     Filename I:\Audio\TORRENTS\Beati Mortui\Let The Funeral Begin\CD 1\tracks\ 03. Beati Mortui – Prey (v2).wav
     Peak level 94.2 %
     Track quality 99.9 %
     Test CRC 2A0CD2A9
     Copy CRC 2A0CD2A9
     Track not present in AccurateRip database
     Copy OK
Track  4
     Filename I:\Audio\TORRENTS\Beati Mortui\Let The Funeral Begin\CD 1\tracks\ 04. Beati Mortui – Let the Funeral Begin.wav
     Peak level 95.9 %
     Track quality 100.0 %
     Test CRC 109234BA
     Copy CRC 109234BA
     Track not present in AccurateRip database
     Copy OK
Track  5
     Filename I:\Audio\TORRENTS\Beati Mortui\Let The Funeral Begin\CD 1\tracks\ 05. Beati Mortui – Deathrow (feat. B. Kramm).wav
     Peak level 97.9 %
     Track quality 99.9 %
     Test CRC 5D4596F5
     Copy CRC 5D4596F5
     Track not present in AccurateRip database
     Copy OK
Track  6
     Filename I:\Audio\TORRENTS\Beati Mortui\Let The Funeral Begin\CD 1\tracks\ 06. Beati Mortui – Sanctimonius.wav
     Peak level 95.3 %
     Track quality 100.0 %
     Test CRC 0125BF1A
     Copy CRC 0125BF1A
     Track not present in AccurateRip database
     Copy OK
Track  7
     Filename I:\Audio\TORRENTS\Beati Mortui\Let The Funeral Begin\CD 1\tracks\ 07. Beati Mortui – Soulreaper (v2).wav
     Peak level 97.9 %
     Track quality 100.0 %
     Test CRC 5077D1F6
     Copy CRC 5077D1F6
     Track not present in AccurateRip database
     Copy OK
Track  8
     Filename I:\Audio\TORRENTS\Beati Mortui\Let The Funeral Begin\CD 1\tracks\ 08. Beati Mortui – All Is Good (The Demon).wav
     Peak level 94.1 %
     Track quality 100.0 %
     Test CRC 130F5FFB
     Copy CRC 130F5FFB
     Track not present in AccurateRip database
     Copy OK
Track  9
     Filename I:\Audio\TORRENTS\Beati Mortui\Let The Funeral Begin\CD 1\tracks\ 09. Beati Mortui – Touch Me Not.wav
     Peak level 97.9 %
     Track quality 100.0 %
     Test CRC 723D5587
     Copy CRC 723D5587
     Track not present in AccurateRip database
     Copy OK
Track 10
     Filename I:\Audio\TORRENTS\Beati Mortui\Let The Funeral Begin\CD 1\tracks\ 10. Beati Mortui – Alone.wav
     Peak level 94.4 %
     Track quality 100.0 %
     Test CRC 088D7903
     Copy CRC 088D7903
     Track not present in AccurateRip database
     Copy OK
Track 11
     Filename I:\Audio\TORRENTS\Beati Mortui\Let The Funeral Begin\CD 1\tracks\ 11. Beati Mortui – Musta Surma.wav
     Peak level 97.9 %
     Track quality 100.0 %
     Test CRC E8096072
     Copy CRC E8096072
     Track not present in AccurateRip database
     Copy OK
Track 12
     Filename I:\Audio\TORRENTS\Beati Mortui\Let The Funeral Begin\CD 1\tracks\ 12. Beati Mortui – ...Obsequiae (Outro).wav
     Peak level 89.2 %
     Track quality 99.8 %
     Test CRC 26D5310E
     Copy CRC 26D5310E
     Track not present in AccurateRip database
     Copy OK
None of the tracks are present in the AccurateRip database
No errors occurred
End of status report
Exact Audio Copy V0.99 prebeta 5 from 4. May 2009
EAC extraction logfile from 30. October 2010, 20:19
Beati Mortui / Funerals Remixed
Used drive  : PIONEER DVD-RW  DVR-216D   Adapter: 0  ID: 0
Read mode               : Secure
Utilize accurate stream : Yes
Defeat audio cache      : Yes
Make use of C2 pointers : No
Read offset correction                      : 96
Overread into Lead-In and Lead-Out          : No
Fill up missing offset samples with silence : Yes
Delete leading and trailing silent blocks   : No
Null samples used in CRC calculations       : Yes
Used interface                              : Native Win32 interface for Win NT & 2000
Gap handling                                : Appended to previous track
Used output format              : User Defined Encoder
Selected bitrate                : 1024 kBit/s
Quality                         : High
Add ID3 tag                     : No
Command line compressor         : C:\Program Files (x86)\Exact Audio Copy\Flac\flac.exe
Additional command line options : -8 -V -T "ARTIST=%a" -T "TITLE=%t" -T "ALBUM=%g" -T "DATE=%y" -T "TRACKNUMBER=%n" -T "GENRE=%m" -T "COMMENT=EAC FLAC -8" %s
TOC of the extracted CD
     Track |   Start  |  Length  | Start sector | End sector
    ---------------------------------------------------------
        1  |  0:00.00 |  4:47.01 |         0    |    21525
        2  |  4:47.01 |  4:18.45 |     21526    |    40920
        3  |  9:05.46 |  6:55.26 |     40921    |    72071
        4  | 16:00.72 |  5:44.69 |     72072    |    97940
        5  | 21:45.66 |  4:46.46 |     97941    |   119436
        6  | 26:32.37 |  4:16.07 |    119437    |   138643
        7  | 30:48.44 |  5:38.27 |    138644    |   164020
        8  | 36:26.71 |  3:30.07 |    164021    |   179777
        9  | 39:57.03 |  3:28.55 |    179778    |   195432
       10  | 43:25.58 |  4:30.14 |    195433    |   215696
       11  | 47:55.72 |  4:27.03 |    215697    |   235724
Track  1
     Filename I:\Audio\TORRENTS\Beati Mortui\Let The Funeral Begin\CD 2\tracks\ 01. Beati Mortui – Vision of Hell (SUICIDE COMMANDO RMX).wav
     Pre-gap length  0:00:02.00
     Peak level 100.0 %
     Track quality 100.0 %
     Test CRC 30342565
     Copy CRC 30342565
     Track not present in AccurateRip database
     Copy OK
Track  2
     Filename I:\Audio\TORRENTS\Beati Mortui\Let The Funeral Begin\CD 2\tracks\ 02. Beati Mortui – Vision of Hell (C-LEKKTOR RMX).wav
     Peak level 99.9 %
     Track quality 100.0 %
     Test CRC 95AED11B
     Copy CRC 95AED11B
     Track not present in AccurateRip database
     Copy OK
Track  3
     Filename I:\Audio\TORRENTS\Beati Mortui\Let The Funeral Begin\CD 2\tracks\ 03. Beati Mortui – Let The Funeral Begin (PROTEUS RMX).wav
     Peak level 97.9 %
     Track quality 100.0 %
     Test CRC D50AD117
     Copy CRC D50AD117
     Track not present in AccurateRip database
     Copy OK
Track  4
     Filename I:\Audio\TORRENTS\Beati Mortui\Let The Funeral Begin\CD 2\tracks\ 04. Beati Mortui – Let the Funeral Begin (KUROSHIO RMX).wav
     Peak level 96.4 %
     Track quality 100.0 %
     Test CRC 8C32E364
     Copy CRC 8C32E364
     Track not present in AccurateRip database
     Copy OK
Track  5
     Filename I:\Audio\TORRENTS\Beati Mortui\Let The Funeral Begin\CD 2\tracks\ 05. Beati Mortui – Let the Funeral Begin (CENTHRON RMX).wav
     Peak level 98.1 %
     Track quality 100.0 %
     Test CRC 3CF93E5B
     Copy CRC 3CF93E5B
     Track not present in AccurateRip database
     Copy OK
Track  6
     Filename I:\Audio\TORRENTS\Beati Mortui\Let The Funeral Begin\CD 2\tracks\ 06. Beati Mortui – Prey (ERILAZ RMX).wav
     Peak level 97.6 %
     Track quality 100.0 %
     Test CRC FFBD8025
     Copy CRC FFBD8025
     Track not present in AccurateRip database
     Copy OK
Track  7
     Filename I:\Audio\TORRENTS\Beati Mortui\Let The Funeral Begin\CD 2\tracks\ 07. Beati Mortui – Prey (DIE BRAUT RMX).wav
     Peak level 97.9 %
     Track quality 99.9 %
     Test CRC 901E0854
     Copy CRC 901E0854
     Track not present in AccurateRip database
     Copy OK
Track  8
     Filename I:\Audio\TORRENTS\Beati Mortui\Let The Funeral Begin\CD 2\tracks\ 08. Beati Mortui – Prey (MACHINE PARK RMX).wav
     Peak level 96.2 %
     Track quality 100.0 %
     Test CRC 83B79988
     Copy CRC 83B79988
     Track not present in AccurateRip database
     Copy OK
Track  9
     Filename I:\Audio\TORRENTS\Beati Mortui\Let The Funeral Begin\CD 2\tracks\ 09. Beati Mortui – Prey (EISENFUNK RMX).wav
     Peak level 97.9 %
     Track quality 100.0 %
     Test CRC EF332B1B
     Copy CRC EF332B1B
     Track not present in AccurateRip database
     Copy OK
Track 10
     Filename I:\Audio\TORRENTS\Beati Mortui\Let The Funeral Begin\CD 2\tracks\ 10. Beati Mortui – Soulreaper (OVERFLOW-110 RMX).wav
     Peak level 97.9 %
     Track quality 100.0 %
     Test CRC 867F4C71
     Copy CRC 867F4C71
     Track not present in AccurateRip database
     Copy OK
Track 11
     Filename I:\Audio\TORRENTS\Beati Mortui\Let The Funeral Begin\CD 2\tracks\ 11. Beati Mortui – Soulreaper (INLINE.SEX.TERROR RMX Feat DV-h).wav
     Peak level 97.9 %
     Track quality 100.0 %
     Test CRC 21D6190D
     Copy CRC 21D6190D
     Track not present in AccurateRip database
     Copy OK
None of the tracks are present in the AccurateRip database
No errors occurred
End of status report
Код:
REM GENRE Electronic
REM DATE 2010
REM DISCID 7D0A000C
REM COMMENT "ExactAudioCopy v0.99pb5"
PERFORMER "Beati Mortui"
TITLE "Let the Funeral Begin"
FILE " 01. Beati Mortui – Painting...(Intro).wav" WAVE
  TRACK 01 AUDIO
    TITLE "Painting...(Intro)"
    PERFORMER "Beati Mortui"
    INDEX 01 00:00:00
FILE " 02. Beati Mortui – Vision of Hell.wav" WAVE
  TRACK 02 AUDIO
    TITLE "Vision of Hell"
    PERFORMER "Beati Mortui"
    INDEX 01 00:00:00
FILE " 03. Beati Mortui – Prey (v2).wav" WAVE
  TRACK 03 AUDIO
    TITLE "Prey (v2)"
    PERFORMER "Beati Mortui"
    INDEX 01 00:00:00
FILE " 04. Beati Mortui – Let the Funeral Begin.wav" WAVE
  TRACK 04 AUDIO
    TITLE "Let the Funeral Begin"
    PERFORMER "Beati Mortui"
    INDEX 01 00:00:00
FILE " 05. Beati Mortui – Deathrow (feat. B. Kramm).wav" WAVE
  TRACK 05 AUDIO
    TITLE "Deathrow (feat. B. Kramm)"
    PERFORMER "Beati Mortui"
    INDEX 01 00:00:00
FILE " 06. Beati Mortui – Sanctimonius.wav" WAVE
  TRACK 06 AUDIO
    TITLE "Sanctimonius"
    PERFORMER "Beati Mortui"
    INDEX 01 00:00:00
FILE " 07. Beati Mortui – Soulreaper (v2).wav" WAVE
  TRACK 07 AUDIO
    TITLE "Soulreaper (v2)"
    PERFORMER "Beati Mortui"
    INDEX 01 00:00:00
FILE " 08. Beati Mortui – All Is Good (The Demon).wav" WAVE
  TRACK 08 AUDIO
    TITLE "All Is Good (The Demon)"
    PERFORMER "Beati Mortui"
    INDEX 01 00:00:00
FILE " 09. Beati Mortui – Touch Me Not.wav" WAVE
  TRACK 09 AUDIO
    TITLE "Touch Me Not"
    PERFORMER "Beati Mortui"
    INDEX 01 00:00:00
FILE " 10. Beati Mortui – Alone.wav" WAVE
  TRACK 10 AUDIO
    TITLE "Alone"
    PERFORMER "Beati Mortui"
    INDEX 01 00:00:00
FILE " 11. Beati Mortui – Musta Surma.wav" WAVE
  TRACK 11 AUDIO
    TITLE "Musta Surma"
    PERFORMER "Beati Mortui"
    INDEX 01 00:00:00
FILE " 12. Beati Mortui – ...Obsequiae (Outro).wav" WAVE
  TRACK 12 AUDIO
    TITLE "...Obsequiae (Outro)"
    PERFORMER "Beati Mortui"
    INDEX 01 00:00:00
REM GENRE Electronic
REM DATE 2010
REM DISCID B30C470B
REM COMMENT "ExactAudioCopy v0.99pb5"
PERFORMER "Beati Mortui"
TITLE "Funerals Remixed"
FILE " 01. Beati Mortui – Vision of Hell (SUICIDE COMMANDO RMX).wav" WAVE
  TRACK 01 AUDIO
    TITLE "Vision of Hell (SUICIDE COMMANDO RMX)"
    PERFORMER "Beati Mortui"
    INDEX 01 00:00:00
FILE " 02. Beati Mortui – Vision of Hell (C-LEKKTOR RMX).wav" WAVE
  TRACK 02 AUDIO
    TITLE "Vision of Hell (C-LEKKTOR RMX)"
    PERFORMER "Beati Mortui"
    INDEX 01 00:00:00
FILE " 03. Beati Mortui – Let The Funeral Begin (PROTEUS RMX).wav" WAVE
  TRACK 03 AUDIO
    TITLE "Let The Funeral Begin (PROTEUS RMX)"
    PERFORMER "Beati Mortui"
    INDEX 01 00:00:00
FILE " 04. Beati Mortui – Let the Funeral Begin (KUROSHIO RMX).wav" WAVE
  TRACK 04 AUDIO
    TITLE "Let the Funeral Begin (KUROSHIO RMX)"
    PERFORMER "Beati Mortui"
    INDEX 01 00:00:00
FILE " 05. Beati Mortui – Let the Funeral Begin (CENTHRON RMX).wav" WAVE
  TRACK 05 AUDIO
    TITLE "Let the Funeral Begin (CENTHRON RMX)"
    PERFORMER "Beati Mortui"
    INDEX 01 00:00:00
FILE " 06. Beati Mortui – Prey (ERILAZ RMX).wav" WAVE
  TRACK 06 AUDIO
    TITLE "Prey (ERILAZ RMX)"
    PERFORMER "Beati Mortui"
    INDEX 01 00:00:00
FILE " 07. Beati Mortui – Prey (DIE BRAUT RMX).wav" WAVE
  TRACK 07 AUDIO
    TITLE "Prey (DIE BRAUT RMX)"
    PERFORMER "Beati Mortui"
    INDEX 01 00:00:00
FILE " 08. Beati Mortui – Prey (MACHINE PARK RMX).wav" WAVE
  TRACK 08 AUDIO
    TITLE "Prey (MACHINE PARK RMX)"
    PERFORMER "Beati Mortui"
    INDEX 01 00:00:00
FILE " 09. Beati Mortui – Prey (EISENFUNK RMX).wav" WAVE
  TRACK 09 AUDIO
    TITLE "Prey (EISENFUNK RMX)"
    PERFORMER "Beati Mortui"
    INDEX 01 00:00:00
FILE " 10. Beati Mortui – Soulreaper (OVERFLOW-110 RMX).wav" WAVE
  TRACK 10 AUDIO
    TITLE "Soulreaper (OVERFLOW-110 RMX)"
    PERFORMER "Beati Mortui"
    INDEX 01 00:00:00
FILE " 11. Beati Mortui – Soulreaper (INLINE.SEX.TERROR RMX Feat DV-h).wav" WAVE
  TRACK 11 AUDIO
    TITLE "Soulreaper (INLINE.SEX.TERROR RMX Feat DV-h)"
    PERFORMER "Beati Mortui"
    INDEX 01 00:00:00
Код:
Started at: суббота, 09. 10. 2010. - 12:55.13
12 files found
01 -===- track 1 in drive PIONEER DVD-RW  DVR-216D
  Track ripped successfully
  Conclusion: this track is CDDA with probability 100%
  Tempfile successfully deleted.
02 -===- track 2 in drive PIONEER DVD-RW  DVR-216D
  Track ripped successfully
  Conclusion: this track is CDDA with probability 100%
  Tempfile successfully deleted.
03 -===- track 3 in drive PIONEER DVD-RW  DVR-216D
  Track ripped successfully
  Conclusion: this track is CDDA with probability 100%
  Tempfile successfully deleted.
04 -===- track 4 in drive PIONEER DVD-RW  DVR-216D
  Track ripped successfully
  Conclusion: this track is CDDA with probability 100%
  Tempfile successfully deleted.
05 -===- track 5 in drive PIONEER DVD-RW  DVR-216D
  Track ripped successfully
  Conclusion: this track is CDDA with probability 100%
  Tempfile successfully deleted.
06 -===- track 6 in drive PIONEER DVD-RW  DVR-216D
  Track ripped successfully
  Conclusion: this track is CDDA with probability 100%
  Tempfile successfully deleted.
07 -===- track 7 in drive PIONEER DVD-RW  DVR-216D
  Track ripped successfully
  Conclusion: this track is CDDA with probability 100%
  Tempfile successfully deleted.
08 -===- track 8 in drive PIONEER DVD-RW  DVR-216D
  Track ripped successfully
  Conclusion: this track is CDDA with probability 100%
  Tempfile successfully deleted.
09 -===- track 9 in drive PIONEER DVD-RW  DVR-216D
  Track ripped successfully
  Conclusion: this track is CDDA with probability 100%
  Tempfile successfully deleted.
10 -===- track 10 in drive PIONEER DVD-RW  DVR-216D
  Track ripped successfully
  Conclusion: this track is CDDA with probability 100%
  Tempfile successfully deleted.
11 -===- track 11 in drive PIONEER DVD-RW  DVR-216D
  Track ripped successfully
  Conclusion: this track is CDDA with probability 100%
  Tempfile successfully deleted.
12 -===- track 12 in drive PIONEER DVD-RW  DVR-216D
  Track ripped successfully
  Conclusion: this track is CDDA with probability 100%
  Tempfile successfully deleted.
Finished at: суббота, 09. 10. 2010. - 13:01.51 (operation time: 0:06.38)
Started at: суббота, 09. 10. 2010. - 16:20.55
11 files found
01 -===- track 1 in drive PIONEER DVD-RW  DVR-216D
  Track ripped successfully
  Conclusion: this track is CDDA with probability 100%
  Tempfile successfully deleted.
02 -===- track 2 in drive PIONEER DVD-RW  DVR-216D
  Track ripped successfully
  Conclusion: this track is CDDA with probability 99%
  Tempfile successfully deleted.
03 -===- track 3 in drive PIONEER DVD-RW  DVR-216D
  Track ripped successfully
  Conclusion: this track is CDDA with probability 100%
  Tempfile successfully deleted.
04 -===- track 4 in drive PIONEER DVD-RW  DVR-216D
  Track ripped successfully
  Conclusion: this track is CDDA with probability 100%
  Tempfile successfully deleted.
05 -===- track 5 in drive PIONEER DVD-RW  DVR-216D
  Track ripped successfully
  Conclusion: this track is CDDA with probability 100%
  Tempfile successfully deleted.
06 -===- track 6 in drive PIONEER DVD-RW  DVR-216D
  Track ripped successfully
  Conclusion: this track is CDDA with probability 100%
  Tempfile successfully deleted.
07 -===- track 7 in drive PIONEER DVD-RW  DVR-216D
  Track ripped successfully
  Conclusion: this track is CDDA with probability 100%
  Tempfile successfully deleted.
08 -===- track 8 in drive PIONEER DVD-RW  DVR-216D
  Track ripped successfully
  Conclusion: this track is CDDA with probability 100%
  Tempfile successfully deleted.
09 -===- track 9 in drive PIONEER DVD-RW  DVR-216D
  Track ripped successfully
  Conclusion: this track is CDDA with probability 100%
  Tempfile successfully deleted.
10 -===- track 10 in drive PIONEER DVD-RW  DVR-216D
  Track ripped successfully
  Conclusion: this track is CDDA with probability 100%
  Tempfile successfully deleted.
11 -===- track 11 in drive PIONEER DVD-RW  DVR-216D
  Track ripped successfully
  Conclusion: this track is CDDA with probability 100%
  Tempfile successfully deleted.
Finished at: суббота, 09. 10. 2010. - 16:28.51 (operation time: 0:07.55)
CD 1



CD 2


Доп. информация: Finnish Melancholic Hellelectro
http://www.discogs.com/Beati-Mortui-Let-The-Funeral-Begin/release/2348897
Правила, инструкции, FAQ!!!
Торрент  Добавлен [26 июн 2020, 16:48] Скачать торрент Магнет ссылка
Скачать торрент
[ Размер 17.54 КБ / Просмотров 3 ]

Статус
Проверен 
 
Размер  711.79 МБ
Приватный: Нет (DHT включён)
.torrent скачан  0
 


     Отправить личное сообщение
   
Страница 1 из 1
Показать сообщения за:  Поле сортировки  
Начать новую тему Ответить на тему


Сейчас этот форум просматривают: нет зарегистрированных пользователей и гости: 0


Вы не можете начинать темы
Вы не можете отвечать на сообщения
Вы не можете редактировать свои сообщения
Вы не можете удалять свои сообщения
Вы не можете добавлять вложения

Перейти:  
cron