Начать новую тему Ответить на тему
Статистика раздачи
Размер: 369.27 МБ | Добавлен: 26 июн 2020, 17:31 | Скачали: 0
Сидеров: 0  [0 байт/сек]    Личеров: 0  [0 байт/сек]
Пред. тема | След. тема 

Автор
Сообщение

СообщениеДобавлено: 26 июн 2020, 17:31 

Ответить с цитатой 

Angelspit / Larva Pupa Tank Coffin
Жанр: Industrial
Страна-производитель диска: US
Год издания диска: 2010
Издатель (лейбл): Metropolis
Номер по каталогу: MET 682
Страна: Australia
Аудио кодек: FLAC (*.flac)
Тип рипа: tracks+.cue
Битрейт аудио: lossless
Продолжительность: 52:01
Источник (релизер): собственный диск
Наличие сканов в содержимом раздачи: нет
Треклист:
01. Sleep Now (Angelspit Remix) [00:04:23]
02. Fink (Noir du'Soleil Remix) [00:04:45]
03. Twenty6hundred [00:03:10]
04. Ditch The Rest (Angelspit Remix) [00:04:19]
05. Sleep Now (Dave Foreman) [00:04:41]
06. Not Born, Hatched [00:04:24]
07. Ditch The Rest (Cage23 Remix) [00:04:33]
08. Hell Was Made Flesh [00:03:46]
09. Fink Lunarmix (Noir du'Soleil Remix) [00:06:35]
10. Massive [00:04:11]
11. Princess Chaos (Angelspit Remix) [00:07:11]
Код:
Exact Audio Copy V0.99 prebeta 5 from 4. May 2009
EAC extraction logfile from 5. March 2011, 9:16
Angelspit / Larva Pupa Tank Coffin
Used drive  : PIONEER DVD-RW  DVR-218L   Adapter: 0  ID: 0
Read mode               : Secure
Utilize accurate stream : Yes
Defeat audio cache      : Yes
Make use of C2 pointers : No
Read offset correction                      : 6
Overread into Lead-In and Lead-Out          : No
Fill up missing offset samples with silence : Yes
Delete leading and trailing silent blocks   : No
Null samples used in CRC calculations       : Yes
Used interface                              : Installed external ASPI interface
Gap handling                                : Appended to previous track
Used output format              : User Defined Encoder
Selected bitrate                : 320 kBit/s
Quality                         : High
Add ID3 tag                     : No
Command line compressor         : C:\Program Files\Exact Audio Copy\Flac\flac.exe
Additional command line options : -8 -V -T "ARTIST=%a" -T "TITLE=%t" -T "ALBUM=%g" -T "DATE=%y" -T "TRACKNUMBER=%n" -T "GENRE=%m" -T "COMMENT=EAC FLAC -8" %s
TOC of the extracted CD
     Track |   Start  |  Length  | Start sector | End sector
    ---------------------------------------------------------
        1  |  0:00.00 |  4:23.11 |         0    |    19735
        2  |  4:23.11 |  4:45.55 |     19736    |    41165
        3  |  9:08.66 |  3:10.00 |     41166    |    55415
        4  | 12:18.66 |  4:19.08 |     55416    |    74848
        5  | 16:37.74 |  4:41.41 |     74849    |    95964
        6  | 21:19.40 |  4:24.11 |     95965    |   115775
        7  | 25:43.51 |  4:33.65 |    115776    |   136315
        8  | 30:17.41 |  3:46.17 |    136316    |   153282
        9  | 34:03.58 |  6:35.20 |    153283    |   182927
       10  | 40:39.03 |  4:11.13 |    182928    |   201765
       11  | 44:50.16 |  7:11.39 |    201766    |   234129
Track  1
     Filename G:\ZZZ Lossless\(2010) Angelspit - Larva Pupa Tank Coffin (lossless) [Metropolis MET 682]\01 Sleep Now (Angelspit Remix).wav
     Pre-gap length  0:00:02.00
     Peak level 100.0 %
     Track quality 100.0 %
     Test CRC 9C09E482
     Copy CRC 9C09E482
     Track not present in AccurateRip database
     Copy OK
Track  2
     Filename G:\ZZZ Lossless\(2010) Angelspit - Larva Pupa Tank Coffin (lossless) [Metropolis MET 682]\02 Fink (Noir du'Soleil Remix).wav
     Peak level 100.0 %
     Track quality 100.0 %
     Test CRC 256778AC
     Copy CRC 256778AC
     Track not present in AccurateRip database
     Copy OK
Track  3
     Filename G:\ZZZ Lossless\(2010) Angelspit - Larva Pupa Tank Coffin (lossless) [Metropolis MET 682]\03 Twenty6hundred.wav
     Peak level 100.0 %
     Track quality 100.0 %
     Test CRC 67463DFA
     Copy CRC 67463DFA
     Track not present in AccurateRip database
     Copy OK
Track  4
     Filename G:\ZZZ Lossless\(2010) Angelspit - Larva Pupa Tank Coffin (lossless) [Metropolis MET 682]\04 Ditch The Rest (Angelspit Remix).wav
     Peak level 100.0 %
     Track quality 100.0 %
     Test CRC 71FDCC35
     Copy CRC 71FDCC35
     Track not present in AccurateRip database
     Copy OK
Track  5
     Filename G:\ZZZ Lossless\(2010) Angelspit - Larva Pupa Tank Coffin (lossless) [Metropolis MET 682]\05 Sleep Now (Dave Foreman).wav
     Peak level 100.0 %
     Track quality 100.0 %
     Test CRC 010F13CA
     Copy CRC 010F13CA
     Track not present in AccurateRip database
     Copy OK
Track  6
     Filename G:\ZZZ Lossless\(2010) Angelspit - Larva Pupa Tank Coffin (lossless) [Metropolis MET 682]\06 Not Born, Hatched.wav
     Peak level 100.0 %
     Track quality 100.0 %
     Test CRC 88EF51F2
     Copy CRC 88EF51F2
     Track not present in AccurateRip database
     Copy OK
Track  7
     Filename G:\ZZZ Lossless\(2010) Angelspit - Larva Pupa Tank Coffin (lossless) [Metropolis MET 682]\07 Ditch The Rest (Cage23 Remix).wav
     Peak level 100.0 %
     Track quality 100.0 %
     Test CRC 447187EF
     Copy CRC 447187EF
     Track not present in AccurateRip database
     Copy OK
Track  8
     Filename G:\ZZZ Lossless\(2010) Angelspit - Larva Pupa Tank Coffin (lossless) [Metropolis MET 682]\08 Hell Was Made Flesh.wav
     Peak level 100.0 %
     Track quality 100.0 %
     Test CRC 7B2789D7
     Copy CRC 7B2789D7
     Track not present in AccurateRip database
     Copy OK
Track  9
     Filename G:\ZZZ Lossless\(2010) Angelspit - Larva Pupa Tank Coffin (lossless) [Metropolis MET 682]\09 Fink Lunarmix (Noir du'Soleil Remix).wav
     Peak level 100.0 %
     Track quality 100.0 %
     Test CRC CE4B832F
     Copy CRC CE4B832F
     Track not present in AccurateRip database
     Copy OK
Track 10
     Filename G:\ZZZ Lossless\(2010) Angelspit - Larva Pupa Tank Coffin (lossless) [Metropolis MET 682]\10 Massive.wav
     Peak level 100.0 %
     Track quality 100.0 %
     Test CRC 046E013D
     Copy CRC 046E013D
     Track not present in AccurateRip database
     Copy OK
Track 11
     Filename G:\ZZZ Lossless\(2010) Angelspit - Larva Pupa Tank Coffin (lossless) [Metropolis MET 682]\11 Princess Chaos (Angelspit Remix).wav
     Peak level 100.0 %
     Track quality 100.0 %
     Test CRC 980BE9C4
     Copy CRC 980BE9C4
     Track not present in AccurateRip database
     Copy OK
None of the tracks are present in the AccurateRip database
No errors occurred
End of status report
Код:
REM GENRE Industrial
REM DATE 2010
REM DISCID 960C310B
REM COMMENT "ExactAudioCopy v0.99pb5"
PERFORMER "Angelspit"
TITLE "Larva Pupa Tank Coffin"
FILE "01 Sleep Now (Angelspit Remix).wav" WAVE
  TRACK 01 AUDIO
    TITLE "Sleep Now (Angelspit Remix)"
    PERFORMER "Angelspit"
    INDEX 01 00:00:00
FILE "02 Fink (Noir du'Soleil Remix).wav" WAVE
  TRACK 02 AUDIO
    TITLE "Fink (Noir du'Soleil Remix)"
    PERFORMER "Angelspit"
    INDEX 01 00:00:00
FILE "03 Twenty6hundred.wav" WAVE
  TRACK 03 AUDIO
    TITLE "Twenty6hundred"
    PERFORMER "Angelspit"
    INDEX 01 00:00:00
FILE "04 Ditch The Rest (Angelspit Remix).wav" WAVE
  TRACK 04 AUDIO
    TITLE "Ditch The Rest (Angelspit Remix)"
    PERFORMER "Angelspit"
    INDEX 01 00:00:00
FILE "05 Sleep Now (Dave Foreman).wav" WAVE
  TRACK 05 AUDIO
    TITLE "Sleep Now (Dave Foreman)"
    PERFORMER "Angelspit"
    INDEX 01 00:00:00
FILE "06 Not Born, Hatched.wav" WAVE
  TRACK 06 AUDIO
    TITLE "Not Born, Hatched"
    PERFORMER "Angelspit"
    INDEX 01 00:00:00
FILE "07 Ditch The Rest (Cage23 Remix).wav" WAVE
  TRACK 07 AUDIO
    TITLE "Ditch The Rest (Cage23 Remix)"
    PERFORMER "Angelspit"
    INDEX 01 00:00:00
FILE "08 Hell Was Made Flesh.wav" WAVE
  TRACK 08 AUDIO
    TITLE "Hell Was Made Flesh"
    PERFORMER "Angelspit"
    INDEX 01 00:00:00
FILE "09 Fink Lunarmix (Noir du'Soleil Remix).wav" WAVE
  TRACK 09 AUDIO
    TITLE "Fink Lunarmix (Noir du'Soleil Remix)"
    PERFORMER "Angelspit"
    INDEX 01 00:00:00
FILE "10 Massive.wav" WAVE
  TRACK 10 AUDIO
    TITLE "Massive"
    PERFORMER "Angelspit"
    INDEX 01 00:00:00
FILE "11 Princess Chaos (Angelspit Remix).wav" WAVE
  TRACK 11 AUDIO
    TITLE "Princess Chaos (Angelspit Remix)"
    PERFORMER "Angelspit"
    INDEX 01 00:00:00
Правила, инструкции, FAQ!!!
Торрент  Добавлен [26 июн 2020, 17:31] Скачать торрент Магнет ссылка
Скачать торрент
[ Размер 15.77 КБ / Просмотров 11 ]

Статус
Проверен 
 
Размер  369.27 МБ
Приватный: Нет (DHT включён)
.torrent скачан  0
 


     Отправить личное сообщение
   
Страница 1 из 1
Показать сообщения за:  Поле сортировки  
Начать новую тему Ответить на тему


Сейчас этот форум просматривают: нет зарегистрированных пользователей и гости: 0


Вы не можете начинать темы
Вы не можете отвечать на сообщения
Вы не можете редактировать свои сообщения
Вы не можете удалять свои сообщения
Вы не можете добавлять вложения

Перейти:  
cron