Начать новую тему Ответить на тему
Статистика раздачи
Размер: 238.72 МБ | Добавлен: 26 июн 2020, 20:45 | Скачали: 0
Сидеров: 0  [0 байт/сек]    Личеров: 0  [0 байт/сек]
Пред. тема | След. тема 

Автор
Сообщение

СообщениеДобавлено: 26 июн 2020, 20:45 

Ответить с цитатой 

Amphibious Assault - District Six

Жанр: Industrial
Страна-производитель диска: USA
Год издания диска: 2003
Издатель (лейбл): Social Unrest Records
Номер по каталогу: DSM-SP-584
Страна: USA
Аудиокодек: FLAC (*.flac)
Тип рипа: tracks+.cue
Битрейт аудио: lossless
Продолжительность: 38:22.160
Источник (релизер): waffles.fm, kr3zz
Наличие сканов в содержимом раздачи: нет

Треклист:
01. Post-Apocalyptic Burn (3:13)
02. Searchlight (4:03)
03. District 6 (3:46)
04. There Was Light (Arda) (4:54)
05. Defcon-3 (3:31)
06. In Your Room (6:09)
07. Benedictine (3:34)
08. The Friendly Neighbour (2:44)
09. Synergy (3:16)
10. Revelation 80128 (3:11)
Лучшая ваша благодарность за раздачу - отзывы об альбоме!
This torrent is approved by the Waffle Irons with high confidence of being a perfect rip.

Вокал дамы, что за микрофоном стоит, очень мне напомнил голос Maria Azevedo (Battery)
Естественно, мимо такого коллектива я пройти не смог

Код:
Exact Audio Copy V0.99 prebeta 5 from 4. May 2009
EAC extraction logfile from 10. July 2009, 0:02
Amphibious Assault / District Six
Used drive  : Optiarc DVD RW AD-7563A   Adapter: 0  ID: 0
Read mode               : Secure
Utilize accurate stream : Yes
Defeat audio cache      : Yes
Make use of C2 pointers : No
Read offset correction                      : 6
Overread into Lead-In and Lead-Out          : No
Fill up missing offset samples with silence : Yes
Delete leading and trailing silent blocks   : No
Null samples used in CRC calculations       : Yes
Used interface                              : Native Win32 interface for Win NT & 2000
Gap handling                                : Appended to previous track
Used output format              : User Defined Encoder
Selected bitrate                : 320 kBit/s
Quality                         : High
Add ID3 tag                     : No
Command line compressor         : C:\Program Files (x86)\FLAC\flac.exe
Additional command line options : -V -8 -T "artist=%a" -T "title=%t" -T "album=%g" -T "date=%y" -T "tracknumber=%n" -T "genre=%m" %s
TOC of the extracted CD
     Track |   Start  |  Length  | Start sector | End sector
    ---------------------------------------------------------
        1  |  0:00.00 |  3:13.18 |         0    |    14492
        2  |  3:13.18 |  4:03.15 |     14493    |    32732
        3  |  7:16.33 |  3:45.68 |     32733    |    49675
        4  | 11:02.26 |  4:53.67 |     49676    |    71717
        5  | 15:56.18 |  3:31.23 |     71718    |    87565
        6  | 19:27.41 |  6:08.73 |     87566    |   115238
        7  | 25:36.39 |  3:34.27 |    115239    |   131315
        8  | 29:10.66 |  2:44.13 |    131316    |   143628
        9  | 31:55.04 |  3:15.60 |    143629    |   158313
       10  | 35:10.64 |  3:11.23 |    158314    |   172661
Track  1
     Filename D:\Music\Amphibious Assault - 2003 - District Six\01 - Post-Apocalyptic Burn.wav
     Pre-gap length  0:00:02.00
     Peak level 98.8 %
     Track quality 99.9 %
     Test CRC 68D2DF96
     Copy CRC 68D2DF96
     Accurately ripped (confidence 1)  [42A7E44B]
     Copy OK
Track  2
     Filename D:\Music\Amphibious Assault - 2003 - District Six\02 - Searchlight.wav
     Pre-gap length  0:00:04.00
     Peak level 98.8 %
     Track quality 100.0 %
     Test CRC D841A6D1
     Copy CRC D841A6D1
     Accurately ripped (confidence 1)  [17C95D71]
     Copy OK
Track  3
     Filename D:\Music\Amphibious Assault - 2003 - District Six\03 - District 6.wav
     Peak level 89.1 %
     Track quality 100.0 %
     Test CRC C041D045
     Copy CRC C041D045
     Accurately ripped (confidence 1)  [B9904994]
     Copy OK
Track  4
     Filename D:\Music\Amphibious Assault - 2003 - District Six\04 - There Was Lights (Arda).wav
     Pre-gap length  0:00:04.00
     Peak level 98.8 %
     Track quality 100.0 %
     Test CRC F727321D
     Copy CRC F727321D
     Accurately ripped (confidence 1)  [D339E2A9]
     Copy OK
Track  5
     Filename D:\Music\Amphibious Assault - 2003 - District Six\05 - Defcon 3.wav
     Pre-gap length  0:00:02.00
     Peak level 98.8 %
     Track quality 100.0 %
     Test CRC E143AF21
     Copy CRC E143AF21
     Accurately ripped (confidence 1)  [4C9035AE]
     Copy OK
Track  6
     Filename D:\Music\Amphibious Assault - 2003 - District Six\06 - In Your Room.wav
     Pre-gap length  0:00:02.00
     Peak level 85.1 %
     Track quality 100.0 %
     Test CRC 13108F05
     Copy CRC 13108F05
     Accurately ripped (confidence 1)  [BA1E9395]
     Copy OK
Track  7
     Filename D:\Music\Amphibious Assault - 2003 - District Six\07 - Benedictine.wav
     Pre-gap length  0:00:02.00
     Peak level 98.8 %
     Track quality 100.0 %
     Test CRC 285AA1AC
     Copy CRC 285AA1AC
     Accurately ripped (confidence 1)  [92655DCF]
     Copy OK
Track  8
     Filename D:\Music\Amphibious Assault - 2003 - District Six\08 - The Friendly Neighbour.wav
     Pre-gap length  0:00:04.00
     Peak level 89.1 %
     Track quality 100.0 %
     Test CRC 17BC9150
     Copy CRC 17BC9150
     Accurately ripped (confidence 1)  [23B194EB]
     Copy OK
Track  9
     Filename D:\Music\Amphibious Assault - 2003 - District Six\09 - Synergy.wav
     Peak level 98.8 %
     Track quality 100.0 %
     Test CRC 78A29636
     Copy CRC 78A29636
     Accurately ripped (confidence 1)  [BC24C166]
     Copy OK
Track 10
     Filename D:\Music\Amphibious Assault - 2003 - District Six\10 - Revelation 80128.wav
     Pre-gap length  0:00:05.00
     Peak level 79.4 %
     Track quality 100.0 %
     Test CRC 63426798
     Copy CRC 63426798
     Accurately ripped (confidence 1)  [362D178E]
     Copy OK
All tracks accurately ripped
No errors occurred
End of status report
Код:
REM GENRE Techno
REM DATE 2003
REM DISCID 8F08FE0A
REM COMMENT "ExactAudioCopy v0.99pb5"
FILE "01 - Post-Apocalyptic Burn.wav" WAVE
  TRACK 01 AUDIO
    INDEX 01 00:00:00
  TRACK 02 AUDIO
    INDEX 00 03:09:18
FILE "02 - Searchlight.wav" WAVE
    INDEX 01 00:00:00
FILE "03 - District 6.wav" WAVE
  TRACK 03 AUDIO
    INDEX 01 00:00:00
  TRACK 04 AUDIO
    INDEX 00 03:41:68
FILE "04 - There Was Lights (Arda).wav" WAVE
    INDEX 01 00:00:00
  TRACK 05 AUDIO
    INDEX 00 04:51:67
FILE "05 - Defcon 3.wav" WAVE
    INDEX 01 00:00:00
  TRACK 06 AUDIO
    INDEX 00 03:29:23
FILE "06 - In Your Room.wav" WAVE
    INDEX 01 00:00:00
  TRACK 07 AUDIO
    INDEX 00 06:06:73
FILE "07 - Benedictine.wav" WAVE
    INDEX 01 00:00:00
  TRACK 08 AUDIO
    INDEX 00 03:30:27
FILE "08 - The Friendly Neighbour.wav" WAVE
    INDEX 01 00:00:00
FILE "09 - Synergy.wav" WAVE
  TRACK 09 AUDIO
    INDEX 01 00:00:00
  TRACK 10 AUDIO
    INDEX 00 03:10:60
FILE "10 - Revelation 80128.wav" WAVE
    INDEX 01 00:00:00
Правила, инструкции, FAQ!!!
Торрент  Добавлен [26 июн 2020, 20:45] Скачать торрент Магнет ссылка
Скачать торрент
[ Размер 19.74 КБ / Просмотров 12 ]

Статус
Проверен 
 
Размер  238.72 МБ
Приватный: Нет (DHT включён)
.torrent скачан  0
 


     Отправить личное сообщение
   
Страница 1 из 1
Показать сообщения за:  Поле сортировки  
Начать новую тему Ответить на тему


Сейчас этот форум просматривают: нет зарегистрированных пользователей и гости: 0


Вы не можете начинать темы
Вы не можете отвечать на сообщения
Вы не можете редактировать свои сообщения
Вы не можете удалять свои сообщения
Вы не можете добавлять вложения

Перейти:  
cron