Начать новую тему Ответить на тему
Статистика раздачи
Размер: 386.18 МБ | Добавлен: 26 июн 2020, 16:56 | Скачали: 0
Сидеров: 0  [0 байт/сек]    Личеров: 0  [0 байт/сек]
Пред. тема | След. тема 

Автор
Сообщение

СообщениеДобавлено: 26 июн 2020, 16:56 

Ответить с цитатой 

Terminal Sect - thehumansconditioned
Жанр: Industrial / Aggrotech
Год выпуска диска: 1995
Страна: United States
Производитель диска: None Of The Above
Аудио кодек: FLAC
Тип рипа: tracks+.cue
Битрейт аудио: lossless
Продолжительность: 1:00:51
Релиз: synthetic (what.cd)
Links: MySpace
Трэклист:
01. the human condition (0:22)
02. Prayer (4:25)
03. Gun Worship (7:57)
04. Spirit in a Wire Cage (10:31)
05. Fracture (4:44)
06. Scar Tissue (7:38)
07. Shock Therapy (6:03)
08. Prisoner of Consciousness (2:17)
09. Hanging Tree (5:21)
10. Dissecting Mirror (9:17)
11. Maze of Penetration (2:17)
Personnel:
Guitar, Edited By [Rhythmic Manipulations] - Howard Wulkan
Mastered By [Digital Mastering] - Jeff Elterman
Programmed By, Sampler - Colin Schwen , Howard Wulkan
Songwriter, Producer - Terminal Sect
Vocals, Lyrics By - Colin Schwen
Код:
EAC extraction logfile from 29. June 2010, 14:32 for CD
Terminal Sect / the humans conditioned
Used drive  : MATSHITABD-MLT UJ-220S   Adapter: 1  ID: 0
Read mode   : Secure with NO C2, accurate stream, disable cache
Read offset correction : 151
Overread into Lead-In and Lead-Out : No
Used output format : C:\Program Files (x86)\FLAC\flac.exe   (User Defined Encoder)
                     320 kBit/s
                     Additional command line options : -V -8 -T "artist=%a" -T "title=%t" -T "album=%g" -T "date=%y" -T "tracknumber=%n" -T "genre=%m" %s
Other options      :
    Fill up missing offset samples with silence : Yes
    Delete leading and trailing silent blocks : No
    Native Win32 interface for Win NT & 2000
Track  1
     Filename C:\EACrips\01-the_human_condition.wav
     Pre-gap length  0:00:02.00
     Peak level 98.8 %
     Track quality 100.0 %
     Test CRC C43A5FCF
     Copy CRC C43A5FCF
     Copy OK
Track  2
     Filename C:\EACrips\02-Prayer.wav
     Pre-gap length  0:00:00.93
     Peak level 98.8 %
     Track quality 99.9 %
     Test CRC 8F5555C3
     Copy CRC 8F5555C3
     Copy OK
Track  3
     Filename C:\EACrips\03-Gun_Worship.wav
     Pre-gap length  0:00:00.60
     Peak level 98.8 %
     Track quality 99.9 %
     Test CRC FF7474AE
     Copy CRC FF7474AE
     Copy OK
Track  4
     Filename C:\EACrips\04-Spirit_in_a_Wire_Cage.wav
     Pre-gap length  0:00:00.26
     Peak level 98.8 %
     Track quality 99.9 %
     Test CRC D256AD68
     Copy CRC D256AD68
     Copy OK
Track  5
     Filename C:\EACrips\05-Fracture.wav
     Pre-gap length  0:00:00.02
     Peak level 98.8 %
     Track quality 100.0 %
     Test CRC 22536F78
     Copy CRC 22536F78
     Copy OK
Track  6
     Filename C:\EACrips\06-Scar_Tissue.wav
     Peak level 98.8 %
     Track quality 100.0 %
     Test CRC 82DD7F04
     Copy CRC 82DD7F04
     Copy OK
Track  7
     Filename C:\EACrips\07-Shock_Therapy.wav
     Pre-gap length  0:00:00.33
     Peak level 98.8 %
     Track quality 100.0 %
     Test CRC B5FC622C
     Copy CRC B5FC622C
     Copy OK
Track  8
     Filename C:\EACrips\08-Prisoner_of_Consciousness.wav
     Pre-gap length  0:00:00.46
     Peak level 98.8 %
     Track quality 100.0 %
     Test CRC 9E6BECD5
     Copy CRC 9E6BECD5
     Copy OK
Track  9
     Filename C:\EACrips\09-Hanging_Tree.wav
     Peak level 98.8 %
     Track quality 100.0 %
     Test CRC D476C4F0
     Copy CRC D476C4F0
     Copy OK
Track 10
     Filename C:\EACrips\10-Dissecting_Mirror.wav
     Pre-gap length  0:00:00.06
     Peak level 98.8 %
     Track quality 100.0 %
     Test CRC E61467BE
     Copy CRC E61467BE
     Copy OK
Track 11
     Filename C:\EACrips\11-Maze_of_Penetration.wav
     Pre-gap length  0:00:00.73
     Peak level 98.8 %
     Track quality 100.0 %
     Test CRC 40784A94
     Copy CRC 40784A94
     Copy OK
No errors occured
End of status report
Код:
PERFORMER "Terminal Sect"
TITLE "the humans conditioned"
REM DATE 1995
REM GENRE "Industrial"
FILE "01-the_human_condition.flac" WAVE
  TRACK 01 AUDIO
    PERFORMER "Terminal Sect"
    TITLE "the human condition"
    INDEX 01 00:00:00
  TRACK 02 AUDIO
    PERFORMER "Terminal Sect"
    TITLE "Prayer"
    INDEX 00 00:21:18
FILE "02-Prayer.flac" WAVE
    INDEX 01 00:00:00
  TRACK 03 AUDIO
    PERFORMER "Terminal Sect"
    TITLE "Gun Worship"
    INDEX 00 04:24:17
FILE "03-Gun_Worship.flac" WAVE
    INDEX 01 00:00:00
  TRACK 04 AUDIO
    PERFORMER "Terminal Sect"
    TITLE "Spirit in a Wire Cage"
    INDEX 00 07:56:18
FILE "04-Spirit_in_a_Wire_Cage.flac" WAVE
    INDEX 01 00:00:00
  TRACK 05 AUDIO
    PERFORMER "Terminal Sect"
    TITLE "Fracture"
    INDEX 00 10:30:55
FILE "05-Fracture.flac" WAVE
    INDEX 01 00:00:00
FILE "06-Scar_Tissue.flac" WAVE
  TRACK 06 AUDIO
    PERFORMER "Terminal Sect"
    TITLE "Scar Tissue"
    INDEX 01 00:00:00
  TRACK 07 AUDIO
    PERFORMER "Terminal Sect"
    TITLE "Shock Therapy"
    INDEX 00 07:37:53
FILE "07-Shock_Therapy.flac" WAVE
    INDEX 01 00:00:00
  TRACK 08 AUDIO
    PERFORMER "Terminal Sect"
    TITLE "Prisoner of Consciousness"
    INDEX 00 06:02:72
FILE "08-Prisoner_of_Consciousness.flac" WAVE
    INDEX 01 00:00:00
FILE "09-Hanging_Tree.flac" WAVE
  TRACK 09 AUDIO
    PERFORMER "Terminal Sect"
    TITLE "Hanging Tree"
    INDEX 01 00:00:00
  TRACK 10 AUDIO
    PERFORMER "Terminal Sect"
    TITLE "Dissecting Mirror"
    INDEX 00 05:20:63
FILE "10-Dissecting_Mirror.flac" WAVE
    INDEX 01 00:00:00
  TRACK 11 AUDIO
    PERFORMER "Terminal Sect"
    TITLE "Maze of Penetration"
    INDEX 00 09:16:20
FILE "11-Maze_of_Penetration.flac" WAVE
    INDEX 01 00:00:00

Uploaded with ImageShack.us
Правила, инструкции, FAQ!!!
Торрент  Добавлен [26 июн 2020, 16:56] Скачать торрент Магнет ссылка
Скачать торрент
[ Размер 16.39 КБ / Просмотров 5 ]

Статус
Проверен 
 
Размер  386.18 МБ
Приватный: Нет (DHT включён)
.torrent скачан  0
 


     Отправить личное сообщение
   
Страница 1 из 1
Показать сообщения за:  Поле сортировки  
Начать новую тему Ответить на тему


Сейчас этот форум просматривают: нет зарегистрированных пользователей и гости: 0


Вы не можете начинать темы
Вы не можете отвечать на сообщения
Вы не можете редактировать свои сообщения
Вы не можете удалять свои сообщения
Вы не можете добавлять вложения

Перейти:  
cron