Начать новую тему Ответить на тему
Статистика раздачи
Размер: 232.88 МБ | Добавлен: 26 июн 2020, 21:13 | Скачали: 0
Сидеров: 0  [0 байт/сек]    Личеров: 0  [0 байт/сек]
Пред. тема | След. тема 

Автор
Сообщение

СообщениеДобавлено: 26 июн 2020, 21:13 

Ответить с цитатой 

Coptic Rain - Discovery E.P.
Жанр: Industrial / Aggro-Industrial
Год выпуска диска: 1998
Производитель диска: Germany
Аудио кодек: APE
Тип рипа: image+.cue
Битрейт аудио: lossless
Продолжительность: 34:07
Трэклист:
1. Restricted (0:05)
2. People Are Strange (3:43)
3. Fantom (3:45)
4. The Pentagram (0:13)
5. Painted Bird (4:32)
6. Eclipse '99 (2:50)
7. Bullet The Blue Sky (4:21)
8. Forbidden (0:21)
9. Polarlicht (4:37)
10. Painted Bird (DB-Mix) (4:33)
11. Where Are U Now (0:23)
12. Painted Bird (Slower Mix) (4:39)
Доп. информация: Dynamica; DY 27-3
Код:
Exact Audio Copy V0.99 prebeta 4 from 23. January 2008
EAC extraction logfile from 4. December 2008, 15:58
Coptic Rain / Discovery
Used drive  : TEAC    DV-W520GS   Adapter: 5  ID: 0
Read mode               : Secure
Utilize accurate stream : Yes
Defeat audio cache      : Yes
Make use of C2 pointers : No
Read offset correction                      : 6
Overread into Lead-In and Lead-Out          : No
Fill up missing offset samples with silence : Yes
Delete leading and trailing silent blocks   : No
Null samples used in CRC calculations       : Yes
Used interface                              : Installed external ASPI interface
Used output format : Internal WAV Routines
Sample format      : 44.100 Hz; 16 Bit; Stereo
TOC of the extracted CD
     Track |   Start  |  Length  | Start sector | End sector
    ---------------------------------------------------------
        1  |  0:00.00 |  0:05.15 |         0  |         389
        2  |  0:05.15 |  3:43.30 |       390  |       17144
        3  |  3:48.45 |  3:45.60 |     17145  |       34079
        4  |  7:34.30 |  0:13.60 |     34080  |       35114
        5  |  7:48.15 |  4:32.35 |     35115  |       55549
        6  | 12:20.50 |  2:50.12 |     55550  |       68311
        7  | 15:10.62 |  4:21.35 |     68312  |       87921
        8  | 19:32.22 |  0:21.65 |     87922  |       89561
        9  | 19:54.12 |  4:37.00 |     89562  |      110336
       10  | 24:31.12 |  4:33.00 |    110337  |      130811
       11  | 29:04.12 |  0:23.10 |    130812  |      132546
       12  | 29:27.22 |  4:39.68 |    132547  |      153539
Range status and errors
Selected range
   Filename J:\Coptic Rain - Discovery\CDImage.wav
   Peak level 92.1 %
   Range quality 100.0 %
   Test CRC 170E016E
   Copy CRC 170E016E
   Copy OK
No errors occurred
AccurateRip summary
Track  1  not present in database
Track  2  accurately ripped (confidence 2)  [870D3A6E]
Track  3  accurately ripped (confidence 2)  [BF1115D0]
Track  4  accurately ripped (confidence 2)  [595D2B96]
Track  5  accurately ripped (confidence 2)  [C71ADC96]
Track  6  accurately ripped (confidence 2)  [5AEB2BBA]
Track  7  accurately ripped (confidence 2)  [0FDC2D6B]
Track  8  accurately ripped (confidence 2)  [DD25FAC2]
Track  9  accurately ripped (confidence 2)  [5B09996D]
Track 10  accurately ripped (confidence 2)  [AFD39DD9]
Track 11  accurately ripped (confidence 2)  [B948E326]
Track 12  accurately ripped (confidence 2)  [A1A1AE34]
11 track(s) accurately ripped
 1 track(s) are not present in the AccurateRip database
Some tracks are not present in the AccurateRip database
End of status report
Код:
AUDIOCHECKER v2.0 beta (build 457) - by Dester - opdester@freemail.hu
~~~~~~~~~~~~~~~~~~~~~~~~~~~~~~~~~~
-=== DO NOT EDIT THIS FILE! ===-
Path: ...\Coptic Rain - Discovery
01 -=- CDImage.wav -=- CDDA (100%)
190127764
Пара сканов в комплекте.
Не забываем про спасибы
Правила, инструкции, FAQ!!!
Торрент  Добавлен [26 июн 2020, 21:13] Скачать торрент Магнет ссылка
Скачать торрент
[ Размер 18.89 КБ / Просмотров 8 ]

Статус
Проверен 
 
Размер  232.88 МБ
Приватный: Нет (DHT включён)
.torrent скачан  0
 


     Отправить личное сообщение
   
Страница 1 из 1
Показать сообщения за:  Поле сортировки  
Начать новую тему Ответить на тему


Сейчас этот форум просматривают: нет зарегистрированных пользователей и гости: 0


Вы не можете начинать темы
Вы не можете отвечать на сообщения
Вы не можете редактировать свои сообщения
Вы не можете удалять свои сообщения
Вы не можете добавлять вложения

Перейти:  
cron