Начать новую тему Ответить на тему
Статистика раздачи
Размер: 1.02 ГБ | Добавлен: 26 июн 2020, 21:11 | Скачали: 1
Сидеров: 7  [0 байт/сек]    Личеров: 1  [0 байт/сек]
Пред. тема | След. тема 

Автор
Сообщение

СообщениеДобавлено: 26 июн 2020, 21:11 

Ответить с цитатой 

Acylum / The Enemy + Der Feind
Жанр: Industrial
Страна-производитель диска: Belgium
Год издания диска: 2009
Издатель (лейбл): Alfa Matrix
Номер по каталогу: AM-1129-DCD
Страна: Germany
Аудио кодек: FLAC (*.flac)
Тип рипа: tracks+.cue
Битрейт аудио: lossless
Продолжительность: 65:30 + 72:18
Источник (релизер): 2 CD-R
Наличие сканов в содержимом раздачи: нет
Треклист:
The Enemy
1-01 The Enemy (Kopf Durch Die Wand) 5:21
1-02 Raise Your Fist 3:55
1-03 Hetzjagt 3:49
1-04 Torture Tactics 5:07
1-05 Crazy 4:40
1-06 Lightning Child 5:15
1-07 ES 5:20
1-08 Zyklon B 3:36
1-09 A.C.H.H. (vs Haushetaere) 4:30
Featuring - Haushetaere
1-10 Run Away 4:48
1-11 Wynard 4:44
1-12 SchmerzPervers 4:17
1-13 Kategorie C 4:09
1-14 Drive By 4:06
1-15 Untitled 1:46
Der Feind
2-01 Torture Tactics 5:45
Remix - Ice Ages
2-02 Crazy 5:10
Remix - FGFC820
2-03 Drive By 5:42
Remix - Leæther Strip
2-04 Raise Your Fist 3:53
Remix - Plastic Noise Experience
2-05 Alone 5:09
Remix - HausHetaere
2-06 SchmerzPervers 5:35
Remix - Asseptic Room
2-07 Lightning Child 5:18
Remix - DYM
2-08 Torture Tactics 5:00
Remix - Von Thronstahl
2-09 Drive By 4:38
Remix - Supreme Court
2-10 Lightning Child 3:49
Remix - Cephalgy
2-11 Torture Tactics 4:03
Remix - Preemptive Strike 0.1
2-12 Crazy 4:45
Remix - F.O.D.
2-13 Torture Tactics 5:20
Remix - Industriegebiete
2-14 Torture Tactics 3:30
Remix - Implant
2-15 Raise Your Fist 4:38
Remix - Nervebreaker
Код:
Exact Audio Copy V0.99 prebeta 5 from 4. May 2009
EAC extraction logfile from 27. November 2010, 0:31
Acylum / The Enemy
Used drive  : PIONEER DVD-RW  DVR-216D   Adapter: 0  ID: 0
Read mode               : Secure
Utilize accurate stream : Yes
Defeat audio cache      : Yes
Make use of C2 pointers : No
Read offset correction                      : 96
Overread into Lead-In and Lead-Out          : No
Fill up missing offset samples with silence : Yes
Delete leading and trailing silent blocks   : No
Null samples used in CRC calculations       : Yes
Used interface                              : Native Win32 interface for Win NT & 2000
Gap handling                                : Appended to previous track
Used output format              : User Defined Encoder
Selected bitrate                : 1024 kBit/s
Quality                         : High
Add ID3 tag                     : No
Command line compressor         : C:\Program Files (x86)\Exact Audio Copy\Flac\flac.exe
Additional command line options : -8 -V -T "ARTIST=%a" -T "TITLE=%t" -T "ALBUM=%g" -T "DATE=%y" -T "TRACKNUMBER=%n" -T "GENRE=%m" -T "COMMENT=EAC FLAC -8" %s
TOC of the extracted CD
     Track |   Start  |  Length  | Start sector | End sector
    ---------------------------------------------------------
        1  |  0:00.00 |  5:21.46 |         0    |    24120
        2  |  5:21.46 |  3:55.09 |     24121    |    41754
        3  |  9:16.55 |  3:49.19 |     41755    |    58948
        4  | 13:05.74 |  5:07.62 |     58949    |    82035
        5  | 18:13.61 |  4:40.68 |     82036    |   103103
        6  | 22:54.54 |  5:15.14 |    103104    |   126742
        7  | 28:09.68 |  5:20.41 |    126743    |   150783
        8  | 33:30.34 |  3:36.27 |    150784    |   167010
        9  | 37:06.61 |  4:30.21 |    167011    |   187281
       10  | 41:37.07 |  4:48.23 |    187282    |   208904
       11  | 46:25.30 |  4:44.26 |    208905    |   230230
       12  | 51:09.56 |  4:17.38 |    230231    |   249543
       13  | 55:27.19 |  4:09.33 |    249544    |   268251
       14  | 59:36.52 |  4:06.69 |    268252    |   286770
       15  | 63:43.46 |  1:46.38 |    286771    |   294758
Track  1
     Filename I:\Audio\TORRENTS\Acylum\Acylum - The Enemy\tracks\ 01. Acylum – 01. The Enemy (Kopf durch die Wand).wav
     Pre-gap length  0:00:02.00
     Peak level 100.0 %
     Track quality 100.0 %
     Test CRC 4C002A97
     Copy CRC 4C002A97
     Cannot be verified as accurate (confidence 1)  [4ECF9B18], AccurateRip returned [6ED3E6C8]
     Copy OK
Track  2
     Filename I:\Audio\TORRENTS\Acylum\Acylum - The Enemy\tracks\ 02. Acylum – 02. Raise your Fist.wav
     Peak level 100.0 %
     Track quality 99.9 %
     Test CRC 8CBFB870
     Copy CRC 8CBFB870
     Cannot be verified as accurate (confidence 1)  [1F5DD8C1], AccurateRip returned [CD619F63]
     Copy OK
Track  3
     Filename I:\Audio\TORRENTS\Acylum\Acylum - The Enemy\tracks\ 03. Acylum – 03. Hetzjagt.wav
     Peak level 100.0 %
     Track quality 100.0 %
     Test CRC 733FA555
     Copy CRC 733FA555
     Cannot be verified as accurate (confidence 1)  [7AD4D06A], AccurateRip returned [59C7837E]
     Copy OK
Track  4
     Filename I:\Audio\TORRENTS\Acylum\Acylum - The Enemy\tracks\ 04. Acylum – 04. Torture Tactics.wav
     Peak level 100.0 %
     Track quality 99.9 %
     Test CRC 4F938CAC
     Copy CRC 4F938CAC
     Cannot be verified as accurate (confidence 1)  [D965807D], AccurateRip returned [5299178B]
     Copy OK
Track  5
     Filename I:\Audio\TORRENTS\Acylum\Acylum - The Enemy\tracks\ 05. Acylum – 05. Crazy.wav
     Peak level 100.0 %
     Track quality 99.9 %
     Test CRC B862C8C4
     Copy CRC B862C8C4
     Cannot be verified as accurate (confidence 1)  [75B4BA70], AccurateRip returned [1EAD4CB8]
     Copy OK
Track  6
     Filename I:\Audio\TORRENTS\Acylum\Acylum - The Enemy\tracks\ 06. Acylum – 06. Lightning Child.wav
     Peak level 100.0 %
     Track quality 100.0 %
     Test CRC AAE742A7
     Copy CRC AAE742A7
     Cannot be verified as accurate (confidence 1)  [9BD89E67], AccurateRip returned [06923221]
     Copy OK
Track  7
     Filename I:\Audio\TORRENTS\Acylum\Acylum - The Enemy\tracks\ 07. Acylum – 07. Es.wav
     Peak level 100.0 %
     Track quality 100.0 %
     Test CRC E131158C
     Copy CRC E131158C
     Cannot be verified as accurate (confidence 1)  [53C64172], AccurateRip returned [FEFFDF1C]
     Copy OK
Track  8
     Filename I:\Audio\TORRENTS\Acylum\Acylum - The Enemy\tracks\ 08. Acylum – 08. Zyklon B.wav
     Peak level 100.0 %
     Track quality 100.0 %
     Test CRC D1C5730C
     Copy CRC D1C5730C
     Cannot be verified as accurate (confidence 1)  [6D9744AE], AccurateRip returned [2AC49388]
     Copy OK
Track  9
     Filename I:\Audio\TORRENTS\Acylum\Acylum - The Enemy\tracks\ 09. Acylum – 09. A.C.H.H. (vs.HausHetaere).wav
     Peak level 100.0 %
     Track quality 99.9 %
     Test CRC 72BC164D
     Copy CRC 72BC164D
     Cannot be verified as accurate (confidence 1)  [C9D35D0C], AccurateRip returned [2C2753AA]
     Copy OK
Track 10
     Filename I:\Audio\TORRENTS\Acylum\Acylum - The Enemy\tracks\ 10. Acylum – 10. Run Away.wav
     Peak level 100.0 %
     Track quality 100.0 %
     Test CRC 8A35EF59
     Copy CRC 8A35EF59
     Cannot be verified as accurate (confidence 1)  [FC49167B], AccurateRip returned [A8E14A1B]
     Copy OK
Track 11
     Filename I:\Audio\TORRENTS\Acylum\Acylum - The Enemy\tracks\ 11. Acylum – 11. Wynard.wav
     Peak level 100.0 %
     Track quality 100.0 %
     Test CRC 25CED2D8
     Copy CRC 25CED2D8
     Cannot be verified as accurate (confidence 1)  [B0DCBAEE], AccurateRip returned [E32D6E28]
     Copy OK
Track 12
     Filename I:\Audio\TORRENTS\Acylum\Acylum - The Enemy\tracks\ 12. Acylum – 12. SchmerzPervers.wav
     Peak level 100.0 %
     Track quality 100.0 %
     Test CRC E23E2325
     Copy CRC E23E2325
     Cannot be verified as accurate (confidence 1)  [A7E88973], AccurateRip returned [D3EDA005]
     Copy OK
Track 13
     Filename I:\Audio\TORRENTS\Acylum\Acylum - The Enemy\tracks\ 13. Acylum – 13. Kategorie C.wav
     Peak level 100.0 %
     Track quality 100.0 %
     Test CRC 30AF8E89
     Copy CRC 30AF8E89
     Cannot be verified as accurate (confidence 1)  [4908000C], AccurateRip returned [D25BEF2A]
     Copy OK
Track 14
     Filename I:\Audio\TORRENTS\Acylum\Acylum - The Enemy\tracks\ 14. Acylum – 14. Drive By.wav
     Peak level 100.0 %
     Track quality 100.0 %
     Test CRC E09EB3A6
     Copy CRC E09EB3A6
     Cannot be verified as accurate (confidence 1)  [23F2DC50], AccurateRip returned [7B067B18]
     Copy OK
Track 15
     Filename I:\Audio\TORRENTS\Acylum\Acylum - The Enemy\tracks\ 15. Acylum – 15. Friends with the head into the wall.wav
     Peak level 100.0 %
     Track quality 100.0 %
     Test CRC 81B3D98E
     Copy CRC 81B3D98E
     Cannot be verified as accurate (confidence 1)  [12465EF9], AccurateRip returned [1EA2756A]
     Copy OK
No tracks could be verified as accurate
You may have a different pressing from the one(s) in the database
No errors occurred
End of status report
Exact Audio Copy V0.99 prebeta 5 from 4. May 2009
EAC extraction logfile from 27. November 2010, 2:01
Acylum / Der Feind
Used drive  : PIONEER DVD-RW  DVR-216D   Adapter: 0  ID: 0
Read mode               : Secure
Utilize accurate stream : Yes
Defeat audio cache      : Yes
Make use of C2 pointers : No
Read offset correction                      : 96
Overread into Lead-In and Lead-Out          : No
Fill up missing offset samples with silence : Yes
Delete leading and trailing silent blocks   : No
Null samples used in CRC calculations       : Yes
Used interface                              : Native Win32 interface for Win NT & 2000
Gap handling                                : Appended to previous track
Used output format              : User Defined Encoder
Selected bitrate                : 1024 kBit/s
Quality                         : High
Add ID3 tag                     : No
Command line compressor         : C:\Program Files (x86)\Exact Audio Copy\Flac\flac.exe
Additional command line options : -8 -V -T "ARTIST=%a" -T "TITLE=%t" -T "ALBUM=%g" -T "DATE=%y" -T "TRACKNUMBER=%n" -T "GENRE=%m" -T "COMMENT=EAC FLAC -8" %s
TOC of the extracted CD
     Track |   Start  |  Length  | Start sector | End sector
    ---------------------------------------------------------
        1  |  0:00.00 |  5:45.21 |         0    |    25895
        2  |  5:45.21 |  5:10.19 |     25896    |    49164
        3  | 10:55.40 |  5:42.09 |     49165    |    74823
        4  | 16:37.49 |  3:52.60 |     74824    |    92283
        5  | 20:30.34 |  5:09.16 |     92284    |   115474
        6  | 25:39.50 |  5:35.31 |    115475    |   140630
        7  | 31:15.06 |  5:18.11 |    140631    |   164491
        8  | 36:33.17 |  4:59.40 |    164492    |   186956
        9  | 41:32.57 |  4:38.36 |    186957    |   207842
       10  | 46:11.18 |  3:48.53 |    207843    |   224995
       11  | 49:59.71 |  4:03.34 |    224996    |   243254
       12  | 54:03.30 |  4:45.24 |    243255    |   264653
       13  | 58:48.54 |  5:20.14 |    264654    |   288667
       14  | 64:08.68 |  3:30.28 |    288668    |   304445
       15  | 67:39.21 |  4:38.34 |    304446    |   325329
Track  1
     Filename I:\Audio\TORRENTS\Acylum 2\Acylum - Der Feind\tracks\ 01. Acylum – 01. Torture Tactics (Ice Ages Remix).wav
     Pre-gap length  0:00:02.00
     Peak level 100.0 %
     Track quality 100.0 %
     Test CRC 11B22961
     Copy CRC 11B22961
     Track not present in AccurateRip database
     Copy OK
Track  2
     Filename I:\Audio\TORRENTS\Acylum 2\Acylum - Der Feind\tracks\ 02. Acylum – 02. Crazy (fgfc820 Remix).wav
     Peak level 100.0 %
     Track quality 100.0 %
     Test CRC 42FE0F32
     Copy CRC 42FE0F32
     Track not present in AccurateRip database
     Copy OK
Track  3
     Filename I:\Audio\TORRENTS\Acylum 2\Acylum - Der Feind\tracks\ 03. Acylum – 03. Drive By (Leaether Strip version).wav
     Peak level 100.0 %
     Track quality 100.0 %
     Test CRC A0648917
     Copy CRC A0648917
     Track not present in AccurateRip database
     Copy OK
Track  4
     Filename I:\Audio\TORRENTS\Acylum 2\Acylum - Der Feind\tracks\ 04. Acylum – 04. Raise your Fist (Plastic Noise Experience Remix).wav
     Peak level 100.0 %
     Track quality 100.0 %
     Test CRC 0BFFE66A
     Copy CRC 0BFFE66A
     Track not present in AccurateRip database
     Copy OK
Track  5
     Filename I:\Audio\TORRENTS\Acylum 2\Acylum - Der Feind\tracks\ 05. Acylum – 05. Alone (HausHetaere Version).wav
     Peak level 99.8 %
     Track quality 100.0 %
     Test CRC 33D44A38
     Copy CRC 33D44A38
     Track not present in AccurateRip database
     Copy OK
Track  6
     Filename I:\Audio\TORRENTS\Acylum 2\Acylum - Der Feind\tracks\ 06. Acylum – 06. SchmerzPervers (Asseptic Room Remix).wav
     Peak level 100.0 %
     Track quality 100.0 %
     Test CRC 06BBD034
     Copy CRC 06BBD034
     Track not present in AccurateRip database
     Copy OK
Track  7
     Filename I:\Audio\TORRENTS\Acylum 2\Acylum - Der Feind\tracks\ 07. Acylum – 09 - 07. Lightning Child (DYMґs Dying is modern Remix).wav
     Peak level 100.0 %
     Track quality 100.0 %
     Test CRC 005E3819
     Copy CRC 005E3819
     Track not present in AccurateRip database
     Copy OK
Track  8
     Filename I:\Audio\TORRENTS\Acylum 2\Acylum - Der Feind\tracks\ 08. Acylum – 08. Torture Tactics (Von Thronstahl Remix).wav
     Peak level 100.0 %
     Track quality 99.9 %
     Test CRC 0FC866E5
     Copy CRC 0FC866E5
     Track not present in AccurateRip database
     Copy OK
Track  9
     Filename I:\Audio\TORRENTS\Acylum 2\Acylum - Der Feind\tracks\ 09. Acylum – 09. Drive By (Supreme Court Remix).wav
     Peak level 100.0 %
     Track quality 100.0 %
     Test CRC 73F308C0
     Copy CRC 73F308C0
     Track not present in AccurateRip database
     Copy OK
Track 10
     Filename I:\Audio\TORRENTS\Acylum 2\Acylum - Der Feind\tracks\ 10. Acylum – 10. Lightning Child (Cephalgy Remix).wav
     Peak level 100.0 %
     Track quality 100.0 %
     Test CRC 8513B368
     Copy CRC 8513B368
     Track not present in AccurateRip database
     Copy OK
Track 11
     Filename I:\Audio\TORRENTS\Acylum 2\Acylum - Der Feind\tracks\ 11. Acylum – 11. Torture Tactics (Preemptive Strike 0.1 Remix).wav
     Peak level 100.0 %
     Track quality 100.0 %
     Test CRC 93217385
     Copy CRC 93217385
     Track not present in AccurateRip database
     Copy OK
Track 12
     Filename I:\Audio\TORRENTS\Acylum 2\Acylum - Der Feind\tracks\ 12. Acylum – 12. Crazy (F.O.D. Remix).wav
     Peak level 100.0 %
     Track quality 100.0 %
     Test CRC 40B608F7
     Copy CRC 40B608F7
     Track not present in AccurateRip database
     Copy OK
Track 13
     Filename I:\Audio\TORRENTS\Acylum 2\Acylum - Der Feind\tracks\ 13. Acylum – 13. Torture Tactics (Industriegebiet Remix).wav
     Peak level 100.0 %
     Track quality 100.0 %
     Test CRC 7F95D52B
     Copy CRC 7F95D52B
     Track not present in AccurateRip database
     Copy OK
Track 14
     Filename I:\Audio\TORRENTS\Acylum 2\Acylum - Der Feind\tracks\ 14. Acylum – 14. Torture Tactics (Implant Remix).wav
     Peak level 100.0 %
     Track quality 100.0 %
     Test CRC 2C9BFA1D
     Copy CRC 2C9BFA1D
     Track not present in AccurateRip database
     Copy OK
Track 15
     Filename I:\Audio\TORRENTS\Acylum 2\Acylum - Der Feind\tracks\ 15. Acylum – 15. Raise your Fist (Misantroph & Nervbreaker mix).wav
     Peak level 100.0 %
     Track quality 100.0 %
     Test CRC 090EA5BD
     Copy CRC 090EA5BD
     Track not present in AccurateRip database
     Copy OK
None of the tracks are present in the AccurateRip database
No errors occurred
End of status report
Код:
REM GENRE Electronic
REM DATE 2009
REM DISCID EB0F5A0F
REM COMMENT "ExactAudioCopy v0.99pb5"
PERFORMER "Acylum"
TITLE "The Enemy"
FILE " 01. Acylum – 01. The Enemy (Kopf durch die Wand).wav" WAVE
  TRACK 01 AUDIO
    TITLE "01. The Enemy (Kopf durch die Wand)"
    PERFORMER "Acylum"
    INDEX 01 00:00:00
FILE " 02. Acylum – 02. Raise your Fist.wav" WAVE
  TRACK 02 AUDIO
    TITLE "02. Raise your Fist"
    PERFORMER "Acylum"
    INDEX 01 00:00:00
FILE " 03. Acylum – 03. Hetzjagt.wav" WAVE
  TRACK 03 AUDIO
    TITLE "03. Hetzjagt"
    PERFORMER "Acylum"
    INDEX 01 00:00:00
FILE " 04. Acylum – 04. Torture Tactics.wav" WAVE
  TRACK 04 AUDIO
    TITLE "04. Torture Tactics"
    PERFORMER "Acylum"
    INDEX 01 00:00:00
FILE " 05. Acylum – 05. Crazy.wav" WAVE
  TRACK 05 AUDIO
    TITLE "05. Crazy"
    PERFORMER "Acylum"
    INDEX 01 00:00:00
FILE " 06. Acylum – 06. Lightning Child.wav" WAVE
  TRACK 06 AUDIO
    TITLE "06. Lightning Child"
    PERFORMER "Acylum"
    INDEX 01 00:00:00
FILE " 07. Acylum – 07. Es.wav" WAVE
  TRACK 07 AUDIO
    TITLE "07. Es"
    PERFORMER "Acylum"
    INDEX 01 00:00:00
FILE " 08. Acylum – 08. Zyklon B.wav" WAVE
  TRACK 08 AUDIO
    TITLE "08. Zyklon B"
    PERFORMER "Acylum"
    INDEX 01 00:00:00
FILE " 09. Acylum – 09. A.C.H.H. (vs.HausHetaere).wav" WAVE
  TRACK 09 AUDIO
    TITLE "09. A.C.H.H. (vs.HausHetaere)"
    PERFORMER "Acylum"
    INDEX 01 00:00:00
FILE " 10. Acylum – 10. Run Away.wav" WAVE
  TRACK 10 AUDIO
    TITLE "10. Run Away"
    PERFORMER "Acylum"
    INDEX 01 00:00:00
FILE " 11. Acylum – 11. Wynard.wav" WAVE
  TRACK 11 AUDIO
    TITLE "11. Wynard"
    PERFORMER "Acylum"
    INDEX 01 00:00:00
FILE " 12. Acylum – 12. SchmerzPervers.wav" WAVE
  TRACK 12 AUDIO
    TITLE "12. SchmerzPervers"
    PERFORMER "Acylum"
    INDEX 01 00:00:00
FILE " 13. Acylum – 13. Kategorie C.wav" WAVE
  TRACK 13 AUDIO
    TITLE "13. Kategorie C "
    PERFORMER "Acylum"
    INDEX 01 00:00:00
FILE " 14. Acylum – 14. Drive By.wav" WAVE
  TRACK 14 AUDIO
    TITLE "14. Drive By"
    PERFORMER "Acylum"
    INDEX 01 00:00:00
FILE " 15. Acylum – 15. Friends with the head into the wall.wav" WAVE
  TRACK 15 AUDIO
    TITLE "15. Friends with the head into the wall"
    PERFORMER "Acylum"
    INDEX 01 00:00:00
REM GENRE Electronic
REM DATE 2009
REM DISCID D610F10F
REM COMMENT "ExactAudioCopy v0.99pb5"
PERFORMER "Acylum"
TITLE "Der Feind"
FILE " 01. Acylum – 01. Torture Tactics (Ice Ages Remix).wav" WAVE
  TRACK 01 AUDIO
    TITLE "01. Torture Tactics (Ice Ages Remix)"
    PERFORMER "Acylum"
    INDEX 01 00:00:00
FILE " 02. Acylum – 02. Crazy (fgfc820 Remix).wav" WAVE
  TRACK 02 AUDIO
    TITLE "02. Crazy (fgfc820 Remix)"
    PERFORMER "Acylum"
    INDEX 01 00:00:00
FILE " 03. Acylum – 03. Drive By (Leaether Strip version).wav" WAVE
  TRACK 03 AUDIO
    TITLE "03. Drive By (Leaether Strip version)"
    PERFORMER "Acylum"
    INDEX 01 00:00:00
FILE " 04. Acylum – 04. Raise your Fist (Plastic Noise Experience Remix).wav" WAVE
  TRACK 04 AUDIO
    TITLE "04. Raise your Fist (Plastic Noise Experience Remix)"
    PERFORMER "Acylum"
    INDEX 01 00:00:00
FILE " 05. Acylum – 05. Alone (HausHetaere Version).wav" WAVE
  TRACK 05 AUDIO
    TITLE "05. Alone (HausHetaere Version)"
    PERFORMER "Acylum"
    INDEX 01 00:00:00
FILE " 06. Acylum – 06. SchmerzPervers (Asseptic Room Remix).wav" WAVE
  TRACK 06 AUDIO
    TITLE "06. SchmerzPervers (Asseptic Room Remix)"
    PERFORMER "Acylum"
    INDEX 01 00:00:00
FILE " 07. Acylum – 09 - 07. Lightning Child (DYMґs Dying is modern Remix).wav" WAVE
  TRACK 07 AUDIO
    TITLE "09 \ 07. Lightning Child (DYMґs Dying is modern Remix)"
    PERFORMER "Acylum"
    INDEX 01 00:00:00
FILE " 08. Acylum – 08. Torture Tactics (Von Thronstahl Remix).wav" WAVE
  TRACK 08 AUDIO
    TITLE "08. Torture Tactics (Von Thronstahl Remix)"
    PERFORMER "Acylum"
    INDEX 01 00:00:00
FILE " 09. Acylum – 09. Drive By (Supreme Court Remix).wav" WAVE
  TRACK 09 AUDIO
    TITLE "09. Drive By (Supreme Court Remix) "
    PERFORMER "Acylum"
    INDEX 01 00:00:00
FILE " 10. Acylum – 10. Lightning Child (Cephalgy Remix).wav" WAVE
  TRACK 10 AUDIO
    TITLE "10. Lightning Child (Cephalgy Remix)"
    PERFORMER "Acylum"
    INDEX 01 00:00:00
FILE " 11. Acylum – 11. Torture Tactics (Preemptive Strike 0.1 Remix).wav" WAVE
  TRACK 11 AUDIO
    TITLE "11. Torture Tactics (Preemptive Strike 0.1 Remix) "
    PERFORMER "Acylum"
    INDEX 01 00:00:00
FILE " 12. Acylum – 12. Crazy (F.O.D. Remix).wav" WAVE
  TRACK 12 AUDIO
    TITLE "12. Crazy (F.O.D. Remix)"
    PERFORMER "Acylum"
    INDEX 01 00:00:00
FILE " 13. Acylum – 13. Torture Tactics (Industriegebiet Remix).wav" WAVE
  TRACK 13 AUDIO
    TITLE "13. Torture Tactics (Industriegebiet Remix)"
    PERFORMER "Acylum"
    INDEX 01 00:00:00
FILE " 14. Acylum – 14. Torture Tactics (Implant Remix).wav" WAVE
  TRACK 14 AUDIO
    TITLE "14. Torture Tactics (Implant Remix)"
    PERFORMER "Acylum"
    INDEX 01 00:00:00
FILE " 15. Acylum – 15. Raise your Fist (Misantroph & Nervbreaker mix).wav" WAVE
  TRACK 15 AUDIO
    TITLE "15. Raise your Fist (Misantroph & Nervbreaker mix)"
    PERFORMER "Acylum"
    INDEX 01 00:00:00
Код:
Started at: пятница, 26. 11. 2010. - 23:29.08
15 files found
01 -===- track 1 in drive PIONEER DVD-RW  DVR-216D
  Track ripped successfully
  Conclusion: this track is CDDA with probability 99%
  Tempfile successfully deleted.
02 -===- track 2 in drive PIONEER DVD-RW  DVR-216D
  Track ripped successfully
  Conclusion: this track is CDDA with probability 100%
  Tempfile successfully deleted.
03 -===- track 3 in drive PIONEER DVD-RW  DVR-216D
  Track ripped successfully
  Conclusion: this track is CDDA with probability 100%
  Tempfile successfully deleted.
04 -===- track 4 in drive PIONEER DVD-RW  DVR-216D
  Track ripped successfully
  Conclusion: this track is CDDA with probability 100%
  Tempfile successfully deleted.
05 -===- track 5 in drive PIONEER DVD-RW  DVR-216D
  Track ripped successfully
  Conclusion: this track is CDDA with probability 100%
  Tempfile successfully deleted.
06 -===- track 6 in drive PIONEER DVD-RW  DVR-216D
  Track ripped successfully
  Conclusion: this track is CDDA with probability 100%
  Tempfile successfully deleted.
07 -===- track 7 in drive PIONEER DVD-RW  DVR-216D
  Track ripped successfully
  Conclusion: this track is CDDA with probability 100%
  Tempfile successfully deleted.
08 -===- track 8 in drive PIONEER DVD-RW  DVR-216D
  Track ripped successfully
  Conclusion: this track is CDDA with probability 100%
  Tempfile successfully deleted.
09 -===- track 9 in drive PIONEER DVD-RW  DVR-216D
  Track ripped successfully
  Conclusion: this track is CDDA with probability 100%
  Tempfile successfully deleted.
10 -===- track 10 in drive PIONEER DVD-RW  DVR-216D
  Track ripped successfully
  Conclusion: this track is CDDA with probability 100%
  Tempfile successfully deleted.
11 -===- track 11 in drive PIONEER DVD-RW  DVR-216D
  Track ripped successfully
  Conclusion: this track is CDDA with probability 100%
  Tempfile successfully deleted.
12 -===- track 12 in drive PIONEER DVD-RW  DVR-216D
  Track ripped successfully
  Conclusion: this track is CDDA with probability 100%
  Tempfile successfully deleted.
13 -===- track 13 in drive PIONEER DVD-RW  DVR-216D
  Track ripped successfully
  Conclusion: this track is CDDA with probability 100%
  Tempfile successfully deleted.
14 -===- track 14 in drive PIONEER DVD-RW  DVR-216D
  Track ripped successfully
  Conclusion: this track is CDDA with probability 100%
  Tempfile successfully deleted.
15 -===- track 15 in drive PIONEER DVD-RW  DVR-216D
  Track ripped successfully
  Conclusion: this track is CDDA with probability 100%
  Tempfile successfully deleted.
Finished at: пятница, 26. 11. 2010. - 23:39.19 (operation time: 0:10.10)
Started at: суббота, 27. 11. 2010. - 1:02.14
15 files found
01 -===- track 1 in drive PIONEER DVD-RW  DVR-216D
  Track ripped successfully
  Conclusion: this track is CDDA with probability 100%
  Tempfile successfully deleted.
02 -===- track 2 in drive PIONEER DVD-RW  DVR-216D
  Track ripped successfully
  Conclusion: this track is CDDA with probability 99%
  Tempfile successfully deleted.
03 -===- track 3 in drive PIONEER DVD-RW  DVR-216D
  Track ripped successfully
  Conclusion: this track is CDDA with probability 100%
  Tempfile successfully deleted.
04 -===- track 4 in drive PIONEER DVD-RW  DVR-216D
  Track ripped successfully
  Conclusion: this track is CDDA with probability 100%
  Tempfile successfully deleted.
05 -===- track 5 in drive PIONEER DVD-RW  DVR-216D
  Track ripped successfully
  Conclusion: this track is CDDA with probability 100%
  Tempfile successfully deleted.
06 -===- track 6 in drive PIONEER DVD-RW  DVR-216D
  Track ripped successfully
  Conclusion: this track is CDDA with probability 100%
  Tempfile successfully deleted.
07 -===- track 7 in drive PIONEER DVD-RW  DVR-216D
  Track ripped successfully
  Conclusion: this track is CDDA with probability 100%
  Tempfile successfully deleted.
08 -===- track 8 in drive PIONEER DVD-RW  DVR-216D
  Track ripped successfully
  Conclusion: this track is CDDA with probability 100%
  Tempfile successfully deleted.
09 -===- track 9 in drive PIONEER DVD-RW  DVR-216D
  Track ripped successfully
  Conclusion: this track is CDDA with probability 100%
  Tempfile successfully deleted.
10 -===- track 10 in drive PIONEER DVD-RW  DVR-216D
  Track ripped successfully
  Conclusion: this track is CDDA with probability 99%
  Tempfile successfully deleted.
11 -===- track 11 in drive PIONEER DVD-RW  DVR-216D
  Track ripped successfully
  Conclusion: this track is CDDA with probability 100%
  Tempfile successfully deleted.
12 -===- track 12 in drive PIONEER DVD-RW  DVR-216D
  Track ripped successfully
  Conclusion: this track is CDDA with probability 99%
  Tempfile successfully deleted.
13 -===- track 13 in drive PIONEER DVD-RW  DVR-216D
  Track ripped successfully
  Conclusion: this track is CDDA with probability 100%
  Tempfile successfully deleted.
14 -===- track 14 in drive PIONEER DVD-RW  DVR-216D
  Track ripped successfully
  Conclusion: this track is CDDA with probability 100%
  Tempfile successfully deleted.
15 -===- track 15 in drive PIONEER DVD-RW  DVR-216D
  Track ripped successfully
  Conclusion: could not qualify the source of this track
  Tempfile successfully deleted.
Finished at: суббота, 27. 11. 2010. - 1:12.28 (operation time: 0:10.14)
The Enemy



Der Feind


Доп. информация: http://www.discogs.com/Acylum-The-Enemy-Der-Feind/release/2011506
http://www.myspace.com/acylum
Pedro "Acylum" Engel, Nadine "Cooraz" Engel
Правила, инструкции, FAQ!!!
Торрент  Добавлен [26 июн 2020, 21:11] Скачать торрент Магнет ссылка
Скачать торрент
[ Размер 15.5 КБ / Просмотров 9 ]

Статус
Проверен 
 
Размер  1.02 ГБ
Приватный: Нет (DHT включён)
.torrent скачан  1
 


     Отправить личное сообщение
   
Страница 1 из 1
Показать сообщения за:  Поле сортировки  
Начать новую тему Ответить на тему


Сейчас этот форум просматривают: нет зарегистрированных пользователей и гости: 0


Вы не можете начинать темы
Вы не можете отвечать на сообщения
Вы не можете редактировать свои сообщения
Вы не можете удалять свои сообщения
Вы не можете добавлять вложения

Перейти:  
cron