Начать новую тему Ответить на тему
Статистика раздачи
Размер: 429.6 МБ | Добавлен: 26 мар 2019, 20:30 | Скачали: 0
Сидеров: 0  [0 байт/сек]    Личеров: 0  [0 байт/сек]
Пред. тема | След. тема 

Автор
Сообщение

СообщениеДобавлено: 26 мар 2019, 20:30 

Ответить с цитатой 

The Divine Comedy - Regeneration (2CD Limited Edition)
Жанр: Indie Rock
Носитель: CD
Страна-производитель диска (релиза): France
Год издания: 2001
Издатель (лейбл): Labels
Номер по каталогу: 7243 8 11256 0 1
Страна исполнителя (группы): United Kingdom
Аудиокодек: FLAC (*.flac)
Тип рипа: tracks+.cue
Битрейт аудио: lossless
Продолжительность: 00:49:47 + 00:17:08
Источник (релизер): Собственный рип с фирменных дисков
Наличие сканов в содержимом раздачи: нет
Треклист:
CD1
01. Timestretched
02. Bad Ambassador
03. Perfect Lovesong
04. Note To Self
05. Lost Property
06. Eye Of The Needle
07. Love What You Do
08. Dumb It Down
09. Mastermind
10. Regeneration
11. The Beauty Regime
CD2

01. Soul Trader
02. You
03. Get Me To A Monastery
04. Edward The Confessor
Код:
Exact Audio Copy V1.3 from 2. September 2016
EAC extraction logfile from 9. November 2017, 21:48
The Divine Comedy / Regeneration
Used drive  : Optiarc DVD RW AD-7280S   Adapter: 1  ID: 0
Read mode               : Secure
Utilize accurate stream : Yes
Defeat audio cache      : Yes
Make use of C2 pointers : No
Read offset correction                      : 48
Overread into Lead-In and Lead-Out          : No
Fill up missing offset samples with silence : Yes
Delete leading and trailing silent blocks   : No
Null samples used in CRC calculations       : Yes
Used interface                              : Native Win32 interface for Win NT & 2000
Gap handling                                : Appended to previous track
Used output format              : User Defined Encoder
Selected bitrate                : 768 kBit/s
Quality                         : High
Add ID3 tag                     : No
Command line compressor         : C:\Program Files (x86)\Exact Audio Copy\FLAC\FLAC.EXE
Additional command line options : -6 -V -T "ARTIST=%artist%" -T "TITLE=%title%" -T "ALBUM=%albumtitle%" -T "DATE=%year%" -T "TRACKNUMBER=%tracknr%" -T "GENRE=%genre%" -T "COMMENT=%comment%" -T "BAND=%albuminterpret%" -T "ALBUMARTIST=%albuminterpret%" -T "COMPOSER=%composer%" %haslyrics%--tag-from-file=LYRICS="%lyricsfile%"%haslyrics% -T "DISCNUMBER=%cdnumber%" -T "TOTALDISCS=%totalcds%" -T "TOTALTRACKS=%numtracks%" %hascover%--picture="%coverfile%"%hascover% %source% -o %dest%
TOC of the extracted CD
     Track |   Start  |  Length  | Start sector | End sector
    ---------------------------------------------------------
        1  |  0:00.00 |  2:48.25 |         0    |    12624
        2  |  2:48.25 |  3:45.45 |     12625    |    29544
        3  |  6:33.70 |  3:10.65 |     29545    |    43859
        4  |  9:44.60 |  5:59.57 |     43860    |    70841
        5  | 15:44.42 |  4:39.30 |     70842    |    91796
        6  | 20:23.72 |  5:33.23 |     91797    |   116794
        7  | 25:57.20 |  3:52.35 |    116795    |   134229
        8  | 29:49.55 |  3:56.15 |    134230    |   151944
        9  | 33:45.70 |  5:21.72 |    151945    |   176091
       10  | 39:07.67 |  5:33.08 |    176092    |   201074
       11  | 44:41.00 |  5:11.45 |    201075    |   224444
Track  1
     Filename C:\Users\yav\Desktop\The Divine Comedy\Albums\French Releases\2001 - Regeneration (France, Labels, 7243 8 11256 0 1)\CD1\01. Timestretched.wav
     Pre-gap length  0:00:02.00
     Peak level 98.2 %
     Extraction speed 1.9 X
     Track quality 99.9 %
     Test CRC F58A2474
     Copy CRC F58A2474
     Accurately ripped (confidence 25)  [75177EBC]  (AR v2)
     Copy OK
Track  2
     Filename C:\Users\yav\Desktop\The Divine Comedy\Albums\French Releases\2001 - Regeneration (France, Labels, 7243 8 11256 0 1)\CD1\02. Bad Ambassador.wav
     Peak level 98.6 %
     Extraction speed 2.6 X
     Track quality 100.0 %
     Test CRC 573FC958
     Copy CRC 573FC958
     Accurately ripped (confidence 25)  [657328DA]  (AR v2)
     Copy OK
Track  3
     Filename C:\Users\yav\Desktop\The Divine Comedy\Albums\French Releases\2001 - Regeneration (France, Labels, 7243 8 11256 0 1)\CD1\03. Perfect Lovesong.wav
     Peak level 98.7 %
     Extraction speed 2.4 X
     Track quality 99.9 %
     Test CRC ED5D1A29
     Copy CRC ED5D1A29
     Accurately ripped (confidence 26)  [92EEF224]  (AR v2)
     Copy OK
Track  4
     Filename C:\Users\yav\Desktop\The Divine Comedy\Albums\French Releases\2001 - Regeneration (France, Labels, 7243 8 11256 0 1)\CD1\04. Note To Self.wav
     Peak level 99.3 %
     Extraction speed 3.2 X
     Track quality 100.0 %
     Test CRC 9EE1AF4B
     Copy CRC 9EE1AF4B
     Accurately ripped (confidence 25)  [9F22F831]  (AR v2)
     Copy OK
Track  5
     Filename C:\Users\yav\Desktop\The Divine Comedy\Albums\French Releases\2001 - Regeneration (France, Labels, 7243 8 11256 0 1)\CD1\05. Lost Property.wav
     Peak level 98.4 %
     Extraction speed 3.4 X
     Track quality 100.0 %
     Test CRC DE102191
     Copy CRC DE102191
     Accurately ripped (confidence 25)  [5866FB00]  (AR v2)
     Copy OK
Track  6
     Filename C:\Users\yav\Desktop\The Divine Comedy\Albums\French Releases\2001 - Regeneration (France, Labels, 7243 8 11256 0 1)\CD1\06. Eye Of The Needle.wav
     Peak level 98.4 %
     Extraction speed 3.4 X
     Track quality 99.9 %
     Test CRC 565ADBA6
     Copy CRC 565ADBA6
     Accurately ripped (confidence 25)  [DA8F67C3]  (AR v2)
     Copy OK
Track  7
     Filename C:\Users\yav\Desktop\The Divine Comedy\Albums\French Releases\2001 - Regeneration (France, Labels, 7243 8 11256 0 1)\CD1\07. Love What You Do.wav
     Peak level 98.8 %
     Extraction speed 3.8 X
     Track quality 100.0 %
     Test CRC 7AA6C278
     Copy CRC 7AA6C278
     Accurately ripped (confidence 26)  [5263FE1A]  (AR v2)
     Copy OK
Track  8
     Filename C:\Users\yav\Desktop\The Divine Comedy\Albums\French Releases\2001 - Regeneration (France, Labels, 7243 8 11256 0 1)\CD1\08. Dumb It Down.wav
     Peak level 99.2 %
     Extraction speed 3.9 X
     Track quality 100.0 %
     Test CRC 8666A791
     Copy CRC 8666A791
     Accurately ripped (confidence 24)  [3CD18465]  (AR v2)
     Copy OK
Track  9
     Filename C:\Users\yav\Desktop\The Divine Comedy\Albums\French Releases\2001 - Regeneration (France, Labels, 7243 8 11256 0 1)\CD1\09. Mastermind.wav
     Pre-gap length  0:00:00.13
     Peak level 98.8 %
     Extraction speed 4.3 X
     Track quality 100.0 %
     Test CRC A953B243
     Copy CRC A953B243
     Accurately ripped (confidence 25)  [F858A83E]  (AR v2)
     Copy OK
Track 10
     Filename C:\Users\yav\Desktop\The Divine Comedy\Albums\French Releases\2001 - Regeneration (France, Labels, 7243 8 11256 0 1)\CD1\10. Regeneration.wav
     Peak level 98.9 %
     Extraction speed 4.5 X
     Track quality 100.0 %
     Test CRC 3AF7F72F
     Copy CRC 3AF7F72F
     Accurately ripped (confidence 24)  [7EBAAB73]  (AR v2)
     Copy OK
Track 11
     Filename C:\Users\yav\Desktop\The Divine Comedy\Albums\French Releases\2001 - Regeneration (France, Labels, 7243 8 11256 0 1)\CD1\11. The Beauty Regime.wav
     Pre-gap length  0:00:01.53
     Peak level 98.5 %
     Extraction speed 4.7 X
     Track quality 100.0 %
     Test CRC 9BDEE0D4
     Copy CRC 9BDEE0D4
     Accurately ripped (confidence 24)  [9ED77F7C]  (AR v2)
     Copy OK
All tracks accurately ripped
No errors occurred
End of status report
---- CUETools DB Plugin V2.1.6
[CTDB TOCID: erg1IBfGWbqo8N7flT38k0otmoE-] found
Submit result: already submitted
Track | CTDB Status
  1   | (130/192) Accurately ripped
  2   | (130/192) Accurately ripped
  3   | (130/192) Accurately ripped
  4   | (130/192) Accurately ripped
  5   | (130/192) Accurately ripped
  6   | (129/192) Accurately ripped
  7   | (129/192) Accurately ripped
  8   | (130/192) Accurately ripped
  9   | (130/192) Accurately ripped
 10   | (129/192) Accurately ripped
 11   | (127/192) Accurately ripped
==== Log checksum 61B4908D80CD8C22C6476D605639ED752AE1847576F4259A3A3B920235CC97F6 ====
Код:
Exact Audio Copy V1.3 from 2. September 2016
EAC extraction logfile from 9. November 2017, 21:57
The Divine Comedy / Regeneration
Used drive  : Optiarc DVD RW AD-7280S   Adapter: 1  ID: 0
Read mode               : Secure
Utilize accurate stream : Yes
Defeat audio cache      : Yes
Make use of C2 pointers : No
Read offset correction                      : 48
Overread into Lead-In and Lead-Out          : No
Fill up missing offset samples with silence : Yes
Delete leading and trailing silent blocks   : No
Null samples used in CRC calculations       : Yes
Used interface                              : Native Win32 interface for Win NT & 2000
Gap handling                                : Appended to previous track
Used output format              : User Defined Encoder
Selected bitrate                : 768 kBit/s
Quality                         : High
Add ID3 tag                     : No
Command line compressor         : C:\Program Files (x86)\Exact Audio Copy\FLAC\FLAC.EXE
Additional command line options : -6 -V -T "ARTIST=%artist%" -T "TITLE=%title%" -T "ALBUM=%albumtitle%" -T "DATE=%year%" -T "TRACKNUMBER=%tracknr%" -T "GENRE=%genre%" -T "COMMENT=%comment%" -T "BAND=%albuminterpret%" -T "ALBUMARTIST=%albuminterpret%" -T "COMPOSER=%composer%" %haslyrics%--tag-from-file=LYRICS="%lyricsfile%"%haslyrics% -T "DISCNUMBER=%cdnumber%" -T "TOTALDISCS=%totalcds%" -T "TOTALTRACKS=%numtracks%" %hascover%--picture="%coverfile%"%hascover% %source% -o %dest%
TOC of the extracted CD
     Track |   Start  |  Length  | Start sector | End sector
    ---------------------------------------------------------
        1  |  0:00.00 |  3:03.67 |         0    |    13791
        2  |  3:03.67 |  4:10.05 |     13792    |    32546
        3  |  7:13.72 |  4:33.10 |     32547    |    53031
        4  | 11:47.07 |  5:22.40 |     53032    |    77221
        5  | 19:41.47 | 20:10.46 |     88622    |   179417
Track  1
     Filename C:\Users\yav\Desktop\The Divine Comedy\Albums\French Releases\2001 - Regeneration (France, Labels, 7243 8 11256 0 1)\CD2\01. Soul Trader.wav
     Pre-gap length  0:00:02.00
     Peak level 97.9 %
     Extraction speed 3.0 X
     Track quality 99.9 %
     Test CRC 1554943C
     Copy CRC 1554943C
     Accurately ripped (confidence 5)  [2EF35D43]  (AR v2)
     Copy OK
Track  2
     Filename C:\Users\yav\Desktop\The Divine Comedy\Albums\French Releases\2001 - Regeneration (France, Labels, 7243 8 11256 0 1)\CD2\02. You.wav
     Pre-gap length  0:00:02.37
     Peak level 97.9 %
     Extraction speed 5.2 X
     Track quality 100.0 %
     Test CRC CE2F02B1
     Copy CRC CE2F02B1
     Accurately ripped (confidence 5)  [7E3A6CFF]  (AR v2)
     Copy OK
Track  3
     Filename C:\Users\yav\Desktop\The Divine Comedy\Albums\French Releases\2001 - Regeneration (France, Labels, 7243 8 11256 0 1)\CD2\03. Get Me To A Monastery.wav
     Pre-gap length  0:00:01.17
     Peak level 97.9 %
     Extraction speed 5.7 X
     Track quality 100.0 %
     Test CRC BF98FCC8
     Copy CRC BF98FCC8
     Accurately ripped (confidence 5)  [2FCBE86D]  (AR v2)
     Copy OK
Track  4
     Filename C:\Users\yav\Desktop\The Divine Comedy\Albums\French Releases\2001 - Regeneration (France, Labels, 7243 8 11256 0 1)\CD2\04. Edward The Confessor.wav
     Pre-gap length  0:00:00.37
     Peak level 98.0 %
     Extraction speed 6.2 X
     Track quality 100.0 %
     Test CRC EF5A4744
     Copy CRC EF5A4744
     Accurately ripped (confidence 5)  [F8594F0E]  (AR v2)
     Copy OK
All tracks accurately ripped
No errors occurred
End of status report
---- CUETools DB Plugin V2.1.6
[CTDB TOCID: d7_tXoIYOCAoem0iMU_XRaRf7yM-] found
Submit result: d7_tXoIYOCAoem0iMU_XRaRf7yM- has been confirmed
Track | CTDB Status
  1   | (4/4) Accurately ripped
  2   | (4/4) Accurately ripped
  3   | (4/4) Accurately ripped
  4   | (4/4) Accurately ripped
==== Log checksum CE2F63A82C1B7CBFD276F28AF5954C961CF75F76A23C05F7F3D7C84B1DAA4C3C ====
Код:
REM GENRE "Indie Rock"
REM DATE 2001
REM DISCID A10BB00B
REM COMMENT "ExactAudioCopy v1.3"
CATALOG 0724353176129
PERFORMER "The Divine Comedy"
TITLE "Regeneration"
REM COMPOSER ""
FILE "01. Timestretched.wav" WAVE
  TRACK 01 AUDIO
    TITLE "Timestretched"
    PERFORMER "The Divine Comedy"
    REM COMPOSER ""
    ISRC GBAYE0001476
    INDEX 01 00:00:00
FILE "02. Bad Ambassador.wav" WAVE
  TRACK 02 AUDIO
    TITLE "Bad Ambassador"
    PERFORMER "The Divine Comedy"
    REM COMPOSER ""
    ISRC GBAYE0001477
    INDEX 01 00:00:00
FILE "03. Perfect Lovesong.wav" WAVE
  TRACK 03 AUDIO
    TITLE "Perfect Lovesong"
    PERFORMER "The Divine Comedy"
    REM COMPOSER ""
    ISRC GBAYE0001478
    INDEX 01 00:00:00
FILE "04. Note To Self.wav" WAVE
  TRACK 04 AUDIO
    TITLE "Note To Self"
    PERFORMER "The Divine Comedy"
    REM COMPOSER ""
    ISRC GBAYE0001479
    INDEX 01 00:00:00
FILE "05. Lost Property.wav" WAVE
  TRACK 05 AUDIO
    TITLE "Lost Property"
    PERFORMER "The Divine Comedy"
    REM COMPOSER ""
    ISRC GBAYE0001480
    INDEX 01 00:00:00
FILE "06. Eye Of The Needle.wav" WAVE
  TRACK 06 AUDIO
    TITLE "Eye Of The Needle"
    PERFORMER "The Divine Comedy"
    REM COMPOSER ""
    ISRC GBAYE0001481
    INDEX 01 00:00:00
FILE "07. Love What You Do.wav" WAVE
  TRACK 07 AUDIO
    TITLE "Love What You Do"
    PERFORMER "The Divine Comedy"
    REM COMPOSER ""
    ISRC GBAYE0001482
    INDEX 01 00:00:00
FILE "08. Dumb It Down.wav" WAVE
  TRACK 08 AUDIO
    TITLE "Dumb It Down"
    PERFORMER "The Divine Comedy"
    REM COMPOSER ""
    ISRC GBAYE0001483
    INDEX 01 00:00:00
  TRACK 09 AUDIO
    TITLE "Mastermind"
    PERFORMER "The Divine Comedy"
    REM COMPOSER ""
    ISRC GBAYE0001484
    INDEX 00 03:56:02
FILE "09. Mastermind.wav" WAVE
    INDEX 01 00:00:00
FILE "10. Regeneration.wav" WAVE
  TRACK 10 AUDIO
    TITLE "Regeneration"
    PERFORMER "The Divine Comedy"
    REM COMPOSER ""
    ISRC GBAYE0001485
    INDEX 01 00:00:00
  TRACK 11 AUDIO
    TITLE "The Beauty Regime"
    PERFORMER "The Divine Comedy"
    REM COMPOSER ""
    ISRC GBAYE0001486
    INDEX 00 05:31:30
FILE "11. The Beauty Regime.wav" WAVE
    INDEX 01 00:00:00
Код:
REM GENRE "Indie Rock"
REM DATE 2001
REM DISCID 39095805
REM COMMENT "ExactAudioCopy v1.3"
CATALOG 0724389797206
PERFORMER "The Divine Comedy"
TITLE "Regeneration"
REM COMPOSER ""
FILE "01. Soul Trader.wav" WAVE
  TRACK 01 AUDIO
    TITLE "Soul Trader"
    PERFORMER "The Divine Comedy"
    REM COMPOSER ""
    ISRC GBAYE0001560
    INDEX 01 00:00:00
  TRACK 02 AUDIO
    TITLE "You"
    PERFORMER "The Divine Comedy"
    REM COMPOSER ""
    ISRC GBAYE0001561
    INDEX 00 03:01:30
FILE "02. You.wav" WAVE
    INDEX 01 00:00:00
  TRACK 03 AUDIO
    TITLE "Get Me To A Monastery"
    PERFORMER "The Divine Comedy"
    REM COMPOSER ""
    ISRC GBAYE0001562
    INDEX 00 04:08:63
FILE "03. Get Me To A Monastery.wav" WAVE
    INDEX 01 00:00:00
  TRACK 04 AUDIO
    TITLE "Edward The Confessor"
    PERFORMER "The Divine Comedy"
    REM COMPOSER ""
    ISRC GBAYE0100474
    INDEX 00 04:32:48
FILE "04. Edward The Confessor.wav" WAVE
    INDEX 01 00:00:00
  TRACK 05 MODEx/2xxx
    TITLE "DATA"
    PERFORMER "The Divine Comedy"
    REM COMPOSER ""
    INDEX 00 05:22:40
Код:
AUDIOCHECKER v2.0 beta (build 457) - by Dester - opdester@freemail.hu
~~~~~~~~~~~~~~~~~~~~~~~~~~~~~~~~~~
Started at: Friday, 10. 11. 2017. - 17:00.14
15 files found
01 -===- D:\The Divine Comedy\Albums\French Releases\2001 - Regeneration (France, Labels, 7243 8 11256 0 1)\CD1\01. Timestretched.flac
  Extracted successfully
  Conclusion: this track is CDDA with probability 100%
  Tempfile successfully deleted.
02 -===- D:\The Divine Comedy\Albums\French Releases\2001 - Regeneration (France, Labels, 7243 8 11256 0 1)\CD1\02. Bad Ambassador.flac
  Extracted successfully
  Conclusion: this track is CDDA with probability 99%
  Tempfile successfully deleted.
03 -===- D:\The Divine Comedy\Albums\French Releases\2001 - Regeneration (France, Labels, 7243 8 11256 0 1)\CD1\03. Perfect Lovesong.flac
  Extracted successfully
  Conclusion: this track is CDDA with probability 100%
  Tempfile successfully deleted.
04 -===- D:\The Divine Comedy\Albums\French Releases\2001 - Regeneration (France, Labels, 7243 8 11256 0 1)\CD1\04. Note To Self.flac
  Extracted successfully
  Conclusion: this track is CDDA with probability 99%
  Tempfile successfully deleted.
05 -===- D:\The Divine Comedy\Albums\French Releases\2001 - Regeneration (France, Labels, 7243 8 11256 0 1)\CD1\05. Lost Property.flac
  Extracted successfully
  Conclusion: this track is CDDA with probability 100%
  Tempfile successfully deleted.
06 -===- D:\The Divine Comedy\Albums\French Releases\2001 - Regeneration (France, Labels, 7243 8 11256 0 1)\CD1\06. Eye Of The Needle.flac
  Extracted successfully
  Conclusion: this track is CDDA with probability 100%
  Tempfile successfully deleted.
07 -===- D:\The Divine Comedy\Albums\French Releases\2001 - Regeneration (France, Labels, 7243 8 11256 0 1)\CD1\07. Love What You Do.flac
  Extracted successfully
  Conclusion: this track is CDDA with probability 100%
  Tempfile successfully deleted.
08 -===- D:\The Divine Comedy\Albums\French Releases\2001 - Regeneration (France, Labels, 7243 8 11256 0 1)\CD1\08. Dumb It Down.flac
  Extracted successfully
  Conclusion: this track is CDDA with probability 100%
  Tempfile successfully deleted.
09 -===- D:\The Divine Comedy\Albums\French Releases\2001 - Regeneration (France, Labels, 7243 8 11256 0 1)\CD1\09. Mastermind.flac
  Extracted successfully
  Conclusion: this track is CDDA with probability 100%
  Tempfile successfully deleted.
10 -===- D:\The Divine Comedy\Albums\French Releases\2001 - Regeneration (France, Labels, 7243 8 11256 0 1)\CD1\10. Regeneration.flac
  Extracted successfully
  Conclusion: this track is CDDA with probability 100%
  Tempfile successfully deleted.
11 -===- D:\The Divine Comedy\Albums\French Releases\2001 - Regeneration (France, Labels, 7243 8 11256 0 1)\CD1\11. The Beauty Regime.flac
  Extracted successfully
  Conclusion: this track is CDDA with probability 100%
  Tempfile successfully deleted.
12 -===- D:\The Divine Comedy\Albums\French Releases\2001 - Regeneration (France, Labels, 7243 8 11256 0 1)\CD2\01. Soul Trader.flac
  Extracted successfully
  Conclusion: this track is CDDA with probability 99%
  Tempfile successfully deleted.
13 -===- D:\The Divine Comedy\Albums\French Releases\2001 - Regeneration (France, Labels, 7243 8 11256 0 1)\CD2\02. You.flac
  Extracted successfully
  Conclusion: this track is CDDA with probability 100%
  Tempfile successfully deleted.
14 -===- D:\The Divine Comedy\Albums\French Releases\2001 - Regeneration (France, Labels, 7243 8 11256 0 1)\CD2\03. Get Me To A Monastery.flac
  Extracted successfully
  Conclusion: this track is CDDA with probability 99%
  Tempfile successfully deleted.
15 -===- D:\The Divine Comedy\Albums\French Releases\2001 - Regeneration (France, Labels, 7243 8 11256 0 1)\CD2\04. Edward The Confessor.flac
  Extracted successfully
  Conclusion: this track is CDDA with probability 100%
  Tempfile successfully deleted.
Finished at: Friday, 10. 11. 2017. - 17:03.18 (operation time: 0:03.04)
CD1

CD2
Правила, инструкции, FAQ!!!
Торрент  Добавлен [26 мар 2019, 20:30] Скачать торрент Магнет ссылка
Скачать торрент
[ Размер 18.32 КБ / Просмотров 0 ]

Статус
Проверен 
 
Размер  429.6 МБ
Приватный: Нет (DHT включён)
.torrent скачан  0
 


     Отправить личное сообщение
   
Страница 1 из 1
Показать сообщения за:  Поле сортировки  
Начать новую тему Ответить на тему


Сейчас этот форум просматривают: нет зарегистрированных пользователей и гости: 0


Вы не можете начинать темы
Вы не можете отвечать на сообщения
Вы не можете редактировать свои сообщения
Вы не можете удалять свои сообщения
Вы не можете добавлять вложения

Перейти:  
cron