Начать новую тему Ответить на тему
Статистика раздачи
Размер: 689.04 МБ | Добавлен: 26 мар 2019, 18:38 | Скачали: 1
Сидеров: 42  [0 байт/сек]    Личеров: 3  [0 байт/сек]
Пред. тема | След. тема 

Автор
Сообщение

СообщениеДобавлено: 26 мар 2019, 18:38 

Ответить с цитатой 

Raised By Swans - Discography

Жанр: Indie Rock
Аудио кодек: FLAC
Тип рипа: tracks+.cue
Битрейт аудио: lossless
Raised by Swans - инди-рок группа из Лондона (провинция Онтарио, Канада), состоящая из гитаристов Эрика Хаудена (Eric Howden) и Алекса Райта (Alex Wright), бас-гитариста Энди Магоффина (Andy Magoffin), барабанщика Брэйди Парра (Brady Parr).
Codes And Secret Longing (2005)
01. Cipher in a Foreign Sky
02. Violet Light
03. There Is No Escape
04. Capable of Cruelty
05. Sandcastles
06. Still Inside You
07. Phantom Limb - Divided By Night
08. Relentless
09. Imagined Life
10. The Moment That I'll Miss
11. Scent
12. Drag The Morning
13. Unrequited - Stolen Lakes
Exact Audio Copy V0.99 prebeta 5 from 4. May 2009
EAC extraction logfile from 11. May 2010, 0:33
Raised By Swans / Codes And Secret Longing
Used drive : HL-DT-STDVDRAM GSA-T20N Adapter: 0 ID: 0
Read mode : Secure
Utilize accurate stream : Yes
Defeat audio cache : Yes
Make use of C2 pointers : No
Read offset correction : 667
Overread into Lead-In and Lead-Out : No
Fill up missing offset samples with silence : Yes
Delete leading and trailing silent blocks : No
Null samples used in CRC calculations : Yes
Used interface : Native Win32 interface for Win NT & 2000
Gap handling : Appended to previous track
Used output format : User Defined Encoder
Selected bitrate : 128 kBit/s
Quality : High
Add ID3 tag : No
Command line compressor : C:\Program Files (x86)\Exact Audio Copy\Flac\flac.exe
Additional command line options : -8 -V -T "ARTIST=%a" -T "TITLE=%t" -T "ALBUM=%g" -T "DATE=%y" -T "TRACKNUMBER=%n" -T "GENRE=%m" -T "COMMENT=EAC FLAC -8" %s
TOC of the extracted CD
Track | Start | Length | Start sector | End sector
---------------------------------------------------------
1 | 0:00.00 | 1:55.69 | 0 | 8693
2 | 1:55.69 | 5:03.02 | 8694 | 31420
3 | 6:58.71 | 6:34.70 | 31421 | 61040
4 | 13:33.66 | 4:03.48 | 61041 | 79313
5 | 17:37.39 | 3:45.36 | 79314 | 96224
6 | 21:23.00 | 4:49.28 | 96225 | 117927
7 | 26:12.28 | 8:09.34 | 117928 | 154636
8 | 34:21.62 | 4:03.29 | 154637 | 172890
9 | 38:25.16 | 4:01.17 | 172891 | 190982
10 | 42:26.33 | 3:36.61 | 190983 | 207243
11 | 46:03.19 | 6:34.19 | 207244 | 236812
12 | 52:37.38 | 4:18.39 | 236813 | 256201
13 | 56:56.02 | 8:06.74 | 256202 | 292725
Track 1
Filename C:\Users\IGEMON\Desktop\Codes And Secret Longing\01 - A Cipher In A Foreign Sky.wav
Pre-gap length 0:00:02.00
Peak level 100.0 %
Track quality 100.0 %
Test CRC 6EDC6FD2
Copy CRC 6EDC6FD2
Copy OK
Track 2
Filename C:\Users\IGEMON\Desktop\Codes And Secret Longing\02 - Violet Light.wav
Peak level 100.0 %
Track quality 100.0 %
Test CRC 097C2396
Copy CRC 097C2396
Copy OK
Track 3
Filename C:\Users\IGEMON\Desktop\Codes And Secret Longing\03 - There Is No Escape.wav
Peak level 100.0 %
Track quality 100.0 %
Test CRC 1D438A8A
Copy CRC 1D438A8A
Copy OK
Track 4
Filename C:\Users\IGEMON\Desktop\Codes And Secret Longing\04 - Capable Of Cruelty.wav
Peak level 100.0 %
Track quality 100.0 %
Test CRC DE00E37E
Copy CRC DE00E37E
Copy OK
Track 5
Filename C:\Users\IGEMON\Desktop\Codes And Secret Longing\05 - Sandcastles.wav
Peak level 100.0 %
Track quality 99.9 %
Test CRC FFCD7A7F
Copy CRC FFCD7A7F
Copy OK
Track 6
Filename C:\Users\IGEMON\Desktop\Codes And Secret Longing\06 - Still Inside You.wav
Peak level 100.0 %
Track quality 100.0 %
Test CRC 5FF66836
Copy CRC 5FF66836
Copy OK
Track 7
Filename C:\Users\IGEMON\Desktop\Codes And Secret Longing\07 - Phantom Limb.wav
Peak level 100.0 %
Track quality 99.9 %
Test CRC DC83DA74
Copy CRC DC83DA74
Copy OK
Track 8
Filename C:\Users\IGEMON\Desktop\Codes And Secret Longing\08 - Relentless.wav
Peak level 100.0 %
Track quality 99.9 %
Test CRC C6711E54
Copy CRC C6711E54
Copy OK
Track 9
Filename C:\Users\IGEMON\Desktop\Codes And Secret Longing\09 - Imagined Life.wav
Peak level 100.0 %
Track quality 100.0 %
Test CRC 34ACAD9B
Copy CRC 34ACAD9B
Copy OK
Track 10
Filename C:\Users\IGEMON\Desktop\Codes And Secret Longing\10 - The Moment That I'll Miss.wav
Peak level 100.0 %
Track quality 99.9 %
Test CRC 9C0863AC
Copy CRC 9C0863AC
Copy OK
Track 11
Filename C:\Users\IGEMON\Desktop\Codes And Secret Longing\11 - Scent.wav
Peak level 100.0 %
Track quality 100.0 %
Test CRC 785A6158
Copy CRC 785A6158
Copy OK
Track 12
Filename C:\Users\IGEMON\Desktop\Codes And Secret Longing\12 - Drag The Morning.wav
Peak level 100.0 %
Track quality 100.0 %
Test CRC 33028C8B
Copy CRC 33028C8B
Copy OK
Track 13
Filename C:\Users\IGEMON\Desktop\Codes And Secret Longing\13 - Unrequited , Stolen Lakes.wav
Peak level 100.0 %
Track quality 100.0 %
Test CRC FBAC31CE
Copy CRC FBAC31CE
Copy OK
No errors occurred
End of status report
REM DATE 2005
REM DISCID AF0F3F0D
REM COMMENT "ExactAudioCopy v0.99pb5"
PERFORMER "Raised By Swans"
TITLE "Codes And Secret Longing"
FILE "01 - A Cipher In A Foreign Sky.wav" WAVE
TRACK 01 AUDIO
TITLE "A Cipher In A Foreign Sky"
PERFORMER "Raised By Swans"
INDEX 01 00:00:00
FILE "02 - Violet Light.wav" WAVE
TRACK 02 AUDIO
TITLE "Violet Light"
PERFORMER "Raised By Swans"
INDEX 01 00:00:00
FILE "03 - There Is No Escape.wav" WAVE
TRACK 03 AUDIO
TITLE "There Is No Escape"
PERFORMER "Raised By Swans"
INDEX 01 00:00:00
FILE "04 - Capable Of Cruelty.wav" WAVE
TRACK 04 AUDIO
TITLE "Capable Of Cruelty"
PERFORMER "Raised By Swans"
INDEX 01 00:00:00
FILE "05 - Sandcastles.wav" WAVE
TRACK 05 AUDIO
TITLE "Sandcastles"
PERFORMER "Raised By Swans"
INDEX 01 00:00:00
FILE "06 - Still Inside You.wav" WAVE
TRACK 06 AUDIO
TITLE "Still Inside You"
PERFORMER "Raised By Swans"
INDEX 01 00:00:00
FILE "07 - Phantom Limb.wav" WAVE
TRACK 07 AUDIO
TITLE "Phantom Limb"
PERFORMER "Raised By Swans"
INDEX 01 00:00:00
FILE "08 - Relentless.wav" WAVE
TRACK 08 AUDIO
TITLE "Relentless"
PERFORMER "Raised By Swans"
INDEX 01 00:00:00
FILE "09 - Imagined Life.wav" WAVE
TRACK 09 AUDIO
TITLE "Imagined Life"
PERFORMER "Raised By Swans"
INDEX 01 00:00:00
FILE "10 - The Moment That I'll Miss.wav" WAVE
TRACK 10 AUDIO
TITLE "The Moment That I'll Miss"
PERFORMER "Raised By Swans"
INDEX 01 00:00:00
FILE "11 - Scent.wav" WAVE
TRACK 11 AUDIO
TITLE "Scent"
PERFORMER "Raised By Swans"
INDEX 01 00:00:00
FILE "12 - Drag The Morning.wav" WAVE
TRACK 12 AUDIO
TITLE "Drag The Morning"
PERFORMER "Raised By Swans"
INDEX 01 00:00:00
FILE "13 - Unrequited , Stolen Lakes.wav" WAVE
TRACK 13 AUDIO
TITLE "Unrequited / Stolen Lakes"
PERFORMER "Raised By Swans"
INDEX 01 00:00:00
No Ghostless Place (2010)
#77701. We Were Never Young
02. Hail of Arrows
03. Secret Garden / S.C.
04. Easier
05. Night Fighter
06. By an Ion
07. How Do These Hearts Unfold
08. The Waiting’s Over
09. Old Fires
10. The Past Is The Prey
11. Longer Shadows, Shorter Days
12. There’s Hope Yet
13. North of Light’s End
Exact Audio Copy V0.99 prebeta 5 from 4. May 2009
EAC extraction logfile from 10. May 2010, 15:47
Raised By Swans / No Ghostless Place
Used drive : HL-DT-STDVDRAM GSA-T20N Adapter: 0 ID: 0
Read mode : Secure
Utilize accurate stream : Yes
Defeat audio cache : Yes
Make use of C2 pointers : No
Read offset correction : 667
Overread into Lead-In and Lead-Out : No
Fill up missing offset samples with silence : Yes
Delete leading and trailing silent blocks : No
Null samples used in CRC calculations : Yes
Used interface : Native Win32 interface for Win NT & 2000
Gap handling : Appended to previous track
Used output format : User Defined Encoder
Selected bitrate : 128 kBit/s
Quality : High
Add ID3 tag : No
Command line compressor : C:\Program Files (x86)\Exact Audio Copy\Flac\flac.exe
Additional command line options : -8 -V -T "ARTIST=%a" -T "TITLE=%t" -T "ALBUM=%g" -T "DATE=%y" -T "TRACKNUMBER=%n" -T "GENRE=%m" -T "COMMENT=EAC FLAC -8" %s
TOC of the extracted CD
Track | Start | Length | Start sector | End sector
---------------------------------------------------------
1 | 0:00.00 | 2:57.36 | 0 | 13310
2 | 2:57.36 | 5:03.54 | 13311 | 36089
3 | 8:01.15 | 4:57.71 | 36090 | 58435
4 | 12:59.11 | 2:50.11 | 58436 | 71196
5 | 15:49.22 | 2:49.02 | 71197 | 83873
6 | 18:38.24 | 3:21.14 | 83874 | 98962
7 | 21:59.38 | 4:04.72 | 98963 | 117334
8 | 26:04.35 | 5:01.15 | 117335 | 139924
9 | 31:05.50 | 3:35.37 | 139925 | 156086
10 | 34:41.12 | 6:03.46 | 156087 | 183357
11 | 40:44.58 | 5:33.23 | 183358 | 208355
12 | 46:18.06 | 3:27.21 | 208356 | 223901
13 | 49:45.27 | 3:03.72 | 223902 | 237698
Track 1
Filename C:\Users\IGEMON\Desktop\No Ghostless Place\01 - We Were Never Young.wav
Pre-gap length 0:00:02.00
Peak level 100.0 %
Track quality 100.0 %
Test CRC 0CD5BD04
Copy CRC 0CD5BD04
Copy OK
Track 2
Filename C:\Users\IGEMON\Desktop\No Ghostless Place\02 - Hail Of Arrows.wav
Peak level 100.0 %
Track quality 100.0 %
Test CRC 9B8A4B0C
Copy CRC 9B8A4B0C
Copy OK
Track 3
Filename C:\Users\IGEMON\Desktop\No Ghostless Place\03 - Secret Garden.wav
Peak level 100.0 %
Track quality 100.0 %
Test CRC AA899206
Copy CRC AA899206
Copy OK
Track 4
Filename C:\Users\IGEMON\Desktop\No Ghostless Place\04 - Easier.wav
Peak level 100.0 %
Track quality 100.0 %
Test CRC FF47760A
Copy CRC FF47760A
Copy OK
Track 5
Filename C:\Users\IGEMON\Desktop\No Ghostless Place\05 - Night Fighter.wav
Peak level 100.0 %
Track quality 99.9 %
Test CRC EFF3BEA1
Copy CRC EFF3BEA1
Copy OK
Track 6
Filename C:\Users\IGEMON\Desktop\No Ghostless Place\06 - By An Ion.wav
Peak level 100.0 %
Track quality 100.0 %
Test CRC 788D10DA
Copy CRC 788D10DA
Copy OK
Track 7
Filename C:\Users\IGEMON\Desktop\No Ghostless Place\07 - How Do These Hearts Unfold.wav
Peak level 100.0 %
Track quality 100.0 %
Test CRC 16C5E884
Copy CRC 16C5E884
Copy OK
Track 8
Filename C:\Users\IGEMON\Desktop\No Ghostless Place\08 - The Waiting's Over.wav
Peak level 100.0 %
Track quality 100.0 %
Test CRC CB100309
Copy CRC CB100309
Copy OK
Track 9
Filename C:\Users\IGEMON\Desktop\No Ghostless Place\09 - Old Fires.wav
Peak level 100.0 %
Track quality 99.9 %
Test CRC FADEC52A
Copy CRC FADEC52A
Copy OK
Track 10
Filename C:\Users\IGEMON\Desktop\No Ghostless Place\10 - The Past Is The Prey.wav
Peak level 100.0 %
Track quality 99.9 %
Test CRC 8F26AC9A
Copy CRC 8F26AC9A
Copy OK
Track 11
Filename C:\Users\IGEMON\Desktop\No Ghostless Place\11 - Longer Shadows, Shorter Days.wav
Peak level 100.0 %
Track quality 100.0 %
Test CRC 2EA67C7F
Copy CRC 2EA67C7F
Copy OK
Track 12
Filename C:\Users\IGEMON\Desktop\No Ghostless Place\12 - There's Hope Yet.wav
Peak level 100.0 %
Track quality 100.0 %
Test CRC FBBB2E66
Copy CRC FBBB2E66
Copy OK
Track 13
Filename C:\Users\IGEMON\Desktop\No Ghostless Place\13 - North Of Light's End.wav
Peak level 100.0 %
Track quality 99.9 %
Test CRC 81FB77CF
Copy CRC 81FB77CF
Copy OK
No errors occurred
End of status report
REM DISCID BC0C610D
REM COMMENT "ExactAudioCopy v0.99pb5"
PERFORMER "Raised By Swans"
TITLE "No Ghostless Place"
FILE "01 - We Were Never Young.wav" WAVE
TRACK 01 AUDIO
TITLE "We Were Never Young"
PERFORMER "Raised By Swans"
FLAGS DCP
INDEX 01 00:00:00
FILE "02 - Hail Of Arrows.wav" WAVE
TRACK 02 AUDIO
TITLE "Hail Of Arrows"
PERFORMER "Raised By Swans"
FLAGS DCP
INDEX 01 00:00:00
FILE "03 - Secret Garden.wav" WAVE
TRACK 03 AUDIO
TITLE "Secret Garden"
PERFORMER "Raised By Swans"
FLAGS DCP
INDEX 01 00:00:00
FILE "04 - Easier.wav" WAVE
TRACK 04 AUDIO
TITLE "Easier"
PERFORMER "Raised By Swans"
FLAGS DCP
INDEX 01 00:00:00
FILE "05 - Night Fighter.wav" WAVE
TRACK 05 AUDIO
TITLE "Night Fighter"
PERFORMER "Raised By Swans"
FLAGS DCP
INDEX 01 00:00:00
FILE "06 - By An Ion.wav" WAVE
TRACK 06 AUDIO
TITLE "By An Ion"
PERFORMER "Raised By Swans"
FLAGS DCP
INDEX 01 00:00:00
FILE "07 - How Do These Hearts Unfold.wav" WAVE
TRACK 07 AUDIO
TITLE "How Do These Hearts Unfold"
PERFORMER "Raised By Swans"
FLAGS DCP
INDEX 01 00:00:00
FILE "08 - The Waiting's Over.wav" WAVE
TRACK 08 AUDIO
TITLE "The Waiting's Over"
PERFORMER "Raised By Swans"
FLAGS DCP
INDEX 01 00:00:00
FILE "09 - Old Fires.wav" WAVE
TRACK 09 AUDIO
TITLE "Old Fires"
PERFORMER "Raised By Swans"
FLAGS DCP
INDEX 01 00:00:00
FILE "10 - The Past Is The Prey.wav" WAVE
TRACK 10 AUDIO
TITLE "The Past Is The Prey"
PERFORMER "Raised By Swans"
FLAGS DCP
INDEX 01 00:00:00
FILE "11 - Longer Shadows, Shorter Days.wav" WAVE
TRACK 11 AUDIO
TITLE "Longer Shadows, Shorter Days"
PERFORMER "Raised By Swans"
FLAGS DCP
INDEX 01 00:00:00
FILE "12 - There's Hope Yet.wav" WAVE
TRACK 12 AUDIO
TITLE "There's Hope Yet"
PERFORMER "Raised By Swans"
FLAGS DCP
INDEX 01 00:00:00
FILE "13 - North Of Light's End.wav" WAVE
TRACK 13 AUDIO
TITLE "North Of Light's End"
PERFORMER "Raised By Swans"
FLAGS DCP
INDEX 01 00:00:00
Правила, инструкции, FAQ!!!
Торрент  Добавлен [26 мар 2019, 18:38] Скачать торрент Магнет ссылка
Скачать торрент
[ Размер 16.98 КБ / Просмотров 21 ]

Статус
Проверен 
 
Размер  689.04 МБ
Приватный: Нет (DHT включён)
.torrent скачан  1
 


     Отправить личное сообщение
   
Страница 1 из 1
Показать сообщения за:  Поле сортировки  
Начать новую тему Ответить на тему


Сейчас этот форум просматривают: нет зарегистрированных пользователей и гости: 0


Вы не можете начинать темы
Вы не можете отвечать на сообщения
Вы не можете редактировать свои сообщения
Вы не можете удалять свои сообщения
Вы не можете добавлять вложения

Перейти:  
cron