Начать новую тему Ответить на тему
Статистика раздачи
Размер: 250.27 МБ | Добавлен: 26 мар 2019, 20:40 | Скачали: 0
Сидеров: 0  [0 байт/сек]    Личеров: 0  [0 байт/сек]
Пред. тема | След. тема 

Автор
Сообщение

СообщениеДобавлено: 26 мар 2019, 20:40 

Ответить с цитатой 

Superbus
Pop'n'gum
(2004)
Жанр: Indie Rock / Pop Rock
Год выпуска диска: 2004
Производитель диска: Франция (предположительно)
Аудио кодек: FLAC
Тип рипа: tracks+.cue
Битрейт аудио: lossless
Продолжительность: 00:33:51
Трэклист:
1. Radio Song
2. Pop'n'Gum
3. Des hauts, des bas
4. Sunshine
5. C'est pas comme ça
6. Little Hily
7. Petit détail
8. Sex baby sex
9. Beggin' me to stay
10. Tu respires
11. Taboo
12. Girl
Exact Audio Copy V0.99 prebeta 3 from 28. July 2007
EAC extraction logfile from 7. November 2008, 19:51
Superbus / Pop'n'gum
Used drive : TSSTcorpCD/DVDW TS-H552D Adapter: 2 ID: 0
Read mode : Secure
Utilize accurate stream : Yes
Defeat audio cache : Yes
Make use of C2 pointers : No
Read offset correction : 6
Overread into Lead-In and Lead-Out : No
Fill up missing offset samples with silence : Yes
Delete leading and trailing silent blocks : No
Null samples used in CRC calculations : Yes
Used interface : Installed external ASPI interface
Gap handling : Appended to previous track
Used output format : User Defined Encoder
Selected bitrate : 192 kBit/s
Quality : High
Add ID3 tag : No
Command line compressor : C:\Program Files\Exact Audio Copy\flac.exe
Additional command line options : -8 -A tukey(0.25) -A gauss(0.1875) -b 4096 -V -T "artist=%a" -T "title=%t" -T "album=%g" -T "date=%y" -T "tracknumber=%n" -T "genre=%m" %s --sector-align
TOC of the extracted CD
Track | Start | Length | Start sector | End sector
---------------------------------------------------------
1 | 0:00.00 | 2:24.36 | 0 | 10835
2 | 2:24.36 | 2:14.62 | 10836 | 20947
3 | 4:39.23 | 2:23.45 | 20948 | 31717
4 | 7:02.68 | 3:22.58 | 31718 | 46925
5 | 10:25.51 | 2:34.61 | 46926 | 58536
6 | 13:00.37 | 3:03.46 | 58537 | 72307
7 | 16:04.08 | 3:02.10 | 72308 | 85967
8 | 19:06.18 | 2:41.64 | 85968 | 98106
9 | 21:48.07 | 2:19.13 | 98107 | 108544
10 | 24:07.20 | 3:45.21 | 108545 | 125440
11 | 27:52.41 | 2:49.52 | 125441 | 138167
12 | 30:42.18 | 3:09.22 | 138168 | 152364
13 | 36:23.40 | 5:14.00 | 163765 | 187314
Track 1
Filename C:\Documents and Settings\Florian\Bureau\Pop'n'gum\01 - Superbus - Radio song.wav
Pre-gap length 0:00:02.00
Peak level 99.3 %
Track quality 100.0 %
Test CRC 4BF1406E
Copy CRC 4BF1406E
Accurately ripped (confidence 1) [95156D93]
Copy OK
Track 2
Filename C:\Documents and Settings\Florian\Bureau\Pop'n'gum\02 - Superbus - Pop'n'gum.wav
Pre-gap length 0:00:01.16
Peak level 100.0 %
Track quality 99.9 %
Test CRC 3E126149
Copy CRC 3E126149
Accurately ripped (confidence 1) [B0C862C3]
Copy OK
Track 3
Filename C:\Documents and Settings\Florian\Bureau\Pop'n'gum\03 - Superbus - Des hauts,des bas.wav
Pre-gap length 0:00:02.00
Peak level 100.0 %
Track quality 100.0 %
Test CRC D374D97C
Copy CRC D374D97C
Accurately ripped (confidence 1) [663BF7B7]
Copy OK
Track 4
Filename C:\Documents and Settings\Florian\Bureau\Pop'n'gum\04 - Superbus - Sunshine.wav
Pre-gap length 0:00:01.62
Peak level 100.0 %
Track quality 100.0 %
Test CRC CC6E586E
Copy CRC CC6E586E
Accurately ripped (confidence 1) [1539542E]
Copy OK
Track 5
Filename C:\Documents and Settings\Florian\Bureau\Pop'n'gum\05 - Superbus - C'est pas comme ca.wav
Peak level 99.3 %
Track quality 100.0 %
Test CRC 413572E9
Copy CRC 413572E9
Accurately ripped (confidence 1) [C7739B4D]
Copy OK
Track 6
Filename C:\Documents and Settings\Florian\Bureau\Pop'n'gum\06 - Superbus - Little hily.wav
Pre-gap length 0:00:03.16
Peak level 100.0 %
Track quality 99.9 %
Test CRC 0AC90770
Copy CRC 0AC90770
Accurately ripped (confidence 1) [FE45C096]
Copy OK
Track 7
Filename C:\Documents and Settings\Florian\Bureau\Pop'n'gum\07 - Superbus - Petit detail.wav
Pre-gap length 0:00:00.93
Peak level 99.3 %
Track quality 100.0 %
Test CRC 82205F3D
Copy CRC 82205F3D
Accurately ripped (confidence 1) [B7B0391F]
Copy OK
Track 8
Filename C:\Documents and Settings\Florian\Bureau\Pop'n'gum\08 - Superbus - Sex baby sex.wav
Peak level 99.3 %
Track quality 100.0 %
Test CRC 4369850D
Copy CRC 4369850D
Accurately ripped (confidence 1) [D1679F60]
Copy OK
Track 9
Filename C:\Documents and Settings\Florian\Bureau\Pop'n'gum\09 - Superbus - Beggin' me to stay.wav
Pre-gap length 0:00:02.00
Peak level 99.3 %
Track quality 100.0 %
Test CRC AE777D08
Copy CRC AE777D08
Accurately ripped (confidence 1) [9D214935]
Copy OK
Track 10
Filename C:\Documents and Settings\Florian\Bureau\Pop'n'gum\10 - Superbus - Tu respires.wav
Pre-gap length 0:00:02.00
Peak level 100.0 %
Track quality 100.0 %
Test CRC F4A8D41F
Copy CRC F4A8D41F
Accurately ripped (confidence 1) [0F1C6463]
Copy OK
Track 11
Filename C:\Documents and Settings\Florian\Bureau\Pop'n'gum\11 - Superbus - Taboo.wav
Pre-gap length 0:00:00.16
Peak level 100.0 %
Track quality 99.9 %
Test CRC 14BE595A
Copy CRC 14BE595A
Accurately ripped (confidence 1) [85900F95]
Copy OK
Track 12
Filename C:\Documents and Settings\Florian\Bureau\Pop'n'gum\12 - Superbus - Girl.wav
Pre-gap length 0:00:00.82
Peak level 99.3 %
Track quality 99.9 %
Test CRC 9F7DF54C
Copy CRC 9F7DF54C
Accurately ripped (confidence 1) [796919A9]
Copy OK
All tracks accurately ripped
No errors occurred
End of status report
AUDIOCHECKER v2.0 beta (build 457) - by Dester - opdester@freemail.hu
~~~~~~~~~~~~~~~~~~~~~~~~~~~~~~~~~~
-=== DO NOT EDIT THIS FILE! ===-
Path: ...\Superbus - Pop'n'gum (FLAC) [2004]
01 -=- 01 - Superbus - Radio song.flac -=- CDDA (100%)
02 -=- 02 - Superbus - Pop'n'gum.flac -=- CDDA (100%)
03 -=- 03 - Superbus - Des hauts,des bas.flac -=- CDDA (99%)
04 -=- 04 - Superbus - Sunshine.flac -=- CDDA (100%)
05 -=- 05 - Superbus - C'est pas comme ca.flac -=- CDDA (100%)
06 -=- 06 - Superbus - Little hily.flac -=- CDDA (100%)
07 -=- 07 - Superbus - Petit detail.flac -=- CDDA (100%)
08 -=- 08 - Superbus - Sex baby sex.flac -=- CDDA (100%)
09 -=- 09 - Superbus - Beggin' me to stay.flac -=- CDDA (100%)
10 -=- 10 - Superbus - Tu respires.flac -=- CDDA (100%)
11 -=- 11 - Superbus - Taboo.flac -=- CDDA (100%)
12 -=- 12 - Superbus - Girl.flac -=- CDDA (99%)
Summary 99,83% CDDA
80755412
Подробнее о группе и дискография в мр3
Superbus -Wow (2006) [FLAC]
Время раздачи: преимущественно вечером по Москве
Правила, инструкции, FAQ!!!
Торрент  Добавлен [26 мар 2019, 20:40] Скачать торрент Магнет ссылка
Скачать торрент
[ Размер 20.96 КБ / Просмотров 2 ]

Статус
Проверен 
 
Размер  250.27 МБ
Приватный: Нет (DHT включён)
.torrent скачан  0
 


     Отправить личное сообщение
   
Страница 1 из 1
Показать сообщения за:  Поле сортировки  
Начать новую тему Ответить на тему


Сейчас этот форум просматривают: нет зарегистрированных пользователей и гости: 0


Вы не можете начинать темы
Вы не можете отвечать на сообщения
Вы не можете редактировать свои сообщения
Вы не можете удалять свои сообщения
Вы не можете добавлять вложения

Перейти:  
cron